Front Cover Art
Click to expand Front Artwork
Rear Cover Art
Click to expand Rear Artwork
Insert Cover Art
Click to expand Insert Artwork

MD5 Record Set:    Disc 1    -    Disc 2    -    Disc 3 -    Disc 4 -    Disc 5 -    Disc 6
  • Band / Artist
  • Concert Date
  • RoIO Title
  • Venue
  • Grateful Dead
  • 1971-04-17
  • Dillon Gym (Dick Latvala Vault Leak)
  • Dillon Gym, Princeton University
  • Town / City
  • State / Prov.
  • Country
  • File Format
  • Princeton
  • NJ
  • USA
  • FLAC
  • Recorder Number
  • Sound Quality
  • Entered By
  • Date Entered
  • Soundboard
  • Excellent
  • mikeahern
  • 17th of September 2008
					
  • Grateful Dead Dillon Gym, Princeton University Princeton, NJ 04/17/1971 source : soundboard lineage : MSR> R1? > R2 MAXELL UD35-90 3.75 IPS (Dick Latvala) Technics RS-1506 > R3 TANDBERG TD20A 7.5IPS Transfer : R3 > Technics RS-1506 > TEAC AN-300 DOLBY DECODE > GRACE DESIGN LUNATEC V3 PRE ONLY > KORG MR-1000 > DSD DDF 1BIT 5.644mhZ > AUDIO GATE SW DISEMINATION > 24BIT wav Disc One Set I 01 Truckin' 02 Big Railroad Blues 03 Big Boss Man 04 Bird Song 05 Playing In The Band 06 Hard To Handle 07 Loser 08 Mama Tried 09 Casey Jones 10 Sugar Magnolia (aborted due to technical problems)) 11 Sugar Magnolia Disc Two Set II 01 Good Lovin' > 02 Drums > 03 Good Lovin' 04 Me And Bobby McGee 05 Deal 06 Beat It On Down The Line 07 I'm A King Bee 08 Bertha 09 Sing Me Back Home Disc Three 01 Goin' Down The Road Feeling Bad > 02 jam > 03 Turn On Your Love Light notes: - pitch correction +24 cents - right channel gain reduced by 2 decibels - quite a number of small dropouts have been repaired, a few clicks removed and a little surplus material trimmed out. - there is possibly a splice in Mama Tried with two different sources used, sound quality changes around 0:30 to the end of the song on the raw file. There was noticeably more hiss in the first part. - Good Lovin'(part 1) fades in. - there appears to be a cut in Lovelight around 12:16, hardly anything missing though! This is also present in the other circulating source. - downsampled with Voxengo R8brain and dithered with iZotope Ozone (MBIT+) * ~*~*~*~*~*~*~*~*~*~*~*~*~*~*~*~*~*~*~*~*~*~*~*~*~*~*~* *Pigpen is the star of this show, may his Love Light forever shine* * ~*~*~*~*~*~*~*~*~*~*~*~*~*~*~*~*~*~*~*~*~*~*~*~*~*~*~* Thanks for getting this source to me, you know who YOU are. edited & mastered by SIRMick November 2007 shntool output: length expanded size cdr WAVE problems filename 8:53.48 94134140 --- -- ---xx gd1971-04-17d1t01.flac 4:04.62 43187468 --- -- ---xx gd1971-04-17d1t02.flac 5:16.59 55881212 --- -- ---xx gd1971-04-17d1t03.flac 7:58.48 84432140 --- -- ---xx gd1971-04-17d1t04.flac 4:31.22 47856188 --- -- ---xx gd1971-04-17d1t05.flac 8:26.46 89366636 --- -- ---xx gd1971-04-17d1t06.flac 6:51.65 72653324 --- -- ---xx gd1971-04-17d1t07.flac 2:56.70 31211084 --- -- ---xx gd1971-04-17d1t08.flac 5:33.02 58745948 --- -- ---xx gd1971-04-17d1t09.flac 0:46.25 8173244 --- -- ---xx gd1971-04-17d1t10.flac 6:39.34 70463612 --- -- ---xx gd1971-04-17d1t11.flac 2:10.02 22936748 --- -- ---xx gd1971-04-17d2t01.flac 6:07.47 64849388 --- -- ---xx gd1971-04-17d2t02.flac 19:02.03 201455900 --- -- ---xx gd1971-04-17d2t03.flac 6:13.15 65832524 --- -- ---xx gd1971-04-17d2t04.flac 5:10.74 54858092 --- -- ---xx gd1971-04-17d2t05.flac 3:05.73 32805740 --- -- ---xx gd1971-04-17d2t06.flac 7:36.59 80577212 --- -- ---xx gd1971-04-17d2t07.flac 6:02.31 63929756 --- -- ---xx gd1971-04-17d2t08.flac 7:59.45 84601484 --- -- ---xx gd1971-04-17d2t09.flac 6:07.36 64823516 --- -- ---xx gd1971-04-17d3t01.flac 1:52.00 19756844 --- -- ---xx gd1971-04-17d3t02.flac 16:55.34 179126012 --- -- ---xx gd1971-04-17d3t03.flac 150:23.00 1591658212 B (totals for 23 files, 0.5721 overall compression ratio) flac fingerprints: gd1971-04-17d1t01.flac:e5692fc76be30865d2e09850c31b7bc7 gd1971-04-17d1t02.flac:f2f06b7f60155b0c89eaec0d33268e47 gd1971-04-17d1t03.flac:3939275b8fadcb7cbe2dcb8c98660af5 gd1971-04-17d1t04.flac:a1d065b05bc2543265ee07056e820f4d gd1971-04-17d1t05.flac:7102cfbd79aed9f656a3fbc07600eb25 gd1971-04-17d1t06.flac:7a0f57b996caa0176ff05673f463c709 gd1971-04-17d1t07.flac:56cc4a43b77120df85866f4b7157996b gd1971-04-17d1t08.flac:a4cf6c2dcb850dd3fadd8cbe70c37a8a gd1971-04-17d1t09.flac:3d51571618617020888a972e3cfb2859 gd1971-04-17d1t10.flac:643e1449ee668619e71fd3d57baffa6b gd1971-04-17d1t11.flac:f162f084e4a2e9691d1b51cacec47757 gd1971-04-17d2t01.flac:26b5ce76fd0dbdaa99adca86ef3c1246 gd1971-04-17d2t02.flac:1f4b8a1714082959c63ee16ff419c605 gd1971-04-17d2t03.flac:d8d2891e1b81524951d5e60b8993202f gd1971-04-17d2t04.flac:cf8b382b3389fa1a8da4da8169398501 gd1971-04-17d2t05.flac:cbba4f5139d8b4bd16a7aa72d4af4b33 gd1971-04-17d2t06.flac:922d8ca8f2bdcd32ccd94494168415a9 gd1971-04-17d2t07.flac:f51a9d0f68aeeed56aa496674f41c675 gd1971-04-17d2t08.flac:d327f2597c734ec1be97d43383f191ea gd1971-04-17d2t09.flac:78a8f17def210ca831a025491bde2eaa gd1971-04-17d3t01.flac:7090ea6993442b6d6afcb33c12442720 gd1971-04-17d3t02.flac:88b5acaa98e532e3d955745482395a7a gd1971-04-17d3t03.flac:1fb0d4a5a0f1d769fd2144ed53269af6