Front Cover Art
Click to expand Front Artwork
Rear Cover Art
Click to expand Rear Artwork
Insert Cover Art
Click to expand Insert Artwork

MD5 Record Set:    Disc 1    -    Disc 2    -    Disc 3 -    Disc 4 -    Disc 5 -    Disc 6
  • Band / Artist
  • Concert Date
  • RoIO Title
  • Venue
  • Grateful Dead
  • 1972-04-08
  • Wembley SBD -> (16 Track) Master Reel
  • Wembley Empire Pool
  • Town / City
  • State / Prov.
  • Country
  • File Format
  • London
  • N/A
  • England
  • FLAC
  • Recorder Number
  • Sound Quality
  • Entered By
  • Date Entered
  • Soundboard
  • Excellent
  • mikeahern
  • 19th of September 2008
					
  • Grateful Dead - April 8, 1972 Wembley Empire Pool - London, England Recording Info: SBD -> (16 Track) Master Reel -> Dat (44.1k) Transfer Info: Dat (Sony R500) -> Samplitude Profesional v9.02 -> FLAC (3 Discs Audio / 2 Discs FLAC) All Transfers and Mastering By Charlie Miller charliemiller87@earthlink.net March 22, 2007 Notes: -- All disc changes are seamless -- Thanks to Steve Rolfe for the Dat -- Cumberland Blues patched from shnid=2534 -- Pigpen sings "Who Do You Love" during Caution Set 1: d1t01 - Bertha d1t02 - Me And My Uncle d1t03 - Mr. Charlie d1t04 - Deal d1t05 - Black Throated Wind d1t06 - Next Time You See Me d1t07 - Yellow Dog Story d1t08 - Cumberland Blues d1t09 - Brown Eyed Women d1t10 - Beat It On Down The Line d1t11 - Tennessee Jed d1t12 - Playing In The Band d1t13 - Good Lovin' d2t01 - Looks Like Rain d2t02 - Casey Jones Set 2: d2t03 - Truckin' d2t04 - Big Railroad Blues d2t05 - It Hurts Me Too d3t01 - Dark Star -> d3t02 - Sugar Magnolia -> d3t03 - Caution (Do Not Stop On Tracks) Encore: d3t04 - One More Saturday Night SHNTOOL OUTPUT: length expanded size cdr WAVE problems filename 6:39.43 70484780 --- -- ----- gd72-04-08d1t01.wav 3:13.20 34092284 --- -- ----- gd72-04-08d1t02.wav 3:41.10 39007964 --- -- ----- gd72-04-08d1t03.wav 4:34.11 48359516 --- -- ----- gd72-04-08d1t04.wav 5:50.24 61796492 --- -- ----- gd72-04-08d1t05.wav 4:17.34 45414812 --- -- ----- gd72-04-08d1t06.wav 3:08.46 33271436 --- -- ----- gd72-04-08d1t07.wav 5:46.11 61060316 --- -- ----- gd72-04-08d1t08.wav 4:40.40 49486124 --- -- ----- gd72-04-08d1t09.wav 3:15.03 34405100 --- -- ----- gd72-04-08d1t10.wav 7:20.63 77764220 --- -- ----- gd72-04-08d1t11.wav 10:35.09 112035212 --- -- ----- gd72-04-08d1t12.wav 10:24.22 110125388 --- -- ----- gd72-04-08d1t13.wav 7:34.13 80116220 --- -- ----- gd72-04-08d2t01.wav 6:28.24 68499692 --- -- ----- gd72-04-08d2t02.wav 11:28.05 121375004 --- -- ----- gd72-04-08d2t03.wav 4:16.07 45174908 --- -- ----- gd72-04-08d2t04.wav 5:56.34 62878412 --- -- ----- gd72-04-08d2t05.wav 31:30.12 333424268 --- -- ----- gd72-04-08d3t01.wav 7:16.08 76929260 --- -- ----- gd72-04-08d3t02.wav 17:08.29 181407452 --- -- ----- gd72-04-08d3t03.wav 4:52.26 51569996 --- -- ----- gd72-04-08d3t04.wav 169:56.44 1798678856 B (totals for 22 files)