You searched for: Jimi Hendrix

Selected: Jimi Hendrix - Beat Beat Beat - 1967-05-18

Front Cover Art (No Image)
Front Artwork Unavailable
Rear Cover Art (No Image)
Rear Artwork Unavailable
Insert Cover Art (No Image)
Insert Artwork Unavailable

MD5 Record Set: Disc 1 -    Disc 2 -    Disc 3 -    Disc 4 -    Disc 5 -    Disc 6
  • Band / Artist
  • Concert Date
  • RoIO Title
  • Venue
  • Jimi Hendrix
  • 1967-05-18
  • Beat Beat Beat
  • German TV
  • Town / City
  • State / Prov.
  • Country
  • File Format
  • Offenbach
  • N/A
  • Germany
  • DVD
  • Recorder Number
  • Sound Quality
  • Entered By
  • Date Entered
  • unknown
  • Very Good
  • PaliGap
  • 26th of September 2008
  • Taper - Unknown
					
  • JIMI HENDRIX EXPERIENCE "Beat Beat Beat", German TV Broadcast Stadthalle, Offenbach, Germany May 18, 1967 >> B&W Pro-Shot Video [720X576 (PAL) / 4:3] > 9'56 long >> Soundboard Audio [Combination of 2 sources] > 10'49 long Video: MASTER PRO-SHOT > VHS ? > DVD > DVD Shrink (extraction) Audio: MASTER SBD > LOW GEN. REEL > CDR > EAC > WAV > FLAC Tracklisting (Video): 1. STONE FREE # 2. PURPLE HAZE 3. HEY JOE Tracklisting (Audio): 1. STONE FREE 2. HEY JOE 3. PURPLE HAZE length expanded size cdr WAVE problems filename 3:24.49 36100892 --- -- ---xx Track 01.flac 4:18.52 45633548 --- -- ---xx Track 02.flac 3:06.44 32913932 --- -- ---xx Track 03.flac 10:49.70 114648372 B (totals for 3 files, 0.6552 overall compression ratio) Enjoy, Share & Preserve Quality !!! Brought to You by BP [April 2006]