You searched for: Jimi Hendrix

Selected: Jimi Hendrix - Monterey International Pop Festival - 1967-06-18

Front Cover Art (No Image)
Front Artwork Unavailable
Rear Cover Art (No Image)
Rear Artwork Unavailable
Insert Cover Art (No Image)
Insert Artwork Unavailable

MD5 Record Set:    Disc 1 -    Disc 2 -    Disc 3 -    Disc 4 -    Disc 5 -    Disc 6
  • Band / Artist
  • Concert Date
  • RoIO Title
  • Venue
  • Jimi Hendrix
  • 1967-06-18
  • Monterey International Pop Festival
  • Monterey
  • Town / City
  • State / Prov.
  • Country
  • File Format
  • Monterey
  • CA
  • USA
  • APE
  • Recorder Number
  • Sound Quality
  • Entered By
  • Date Entered
  • Rec 1
  • Excellent
  • PaliGap
  • 26th of September 2008
  • Taper - Unknown
					
  • length expanded size cdr WAVE problems filename 0:11.40 2035184 -b- -- ----- 01-intro.wav 3:15.50 34516680 -b- -- ----- 02-Killing Floor.wav 3:43.50 39455316 -b- -- ----- 03-Foxy Lady.wav 6:48.33 72049332 -b- -- ----- 04-Like A Rolling Stone.wav 3:37.72 38447528 -b- -- ----- 05-Rock Me Baby.wav 5:14.00 55389080 -b- -- ----- 06-Hey Joe.wav 2:43.39 28844220 -b- -- ----- 07-Can You See Me.wav 3:48.64 40370148 -b- -- ----- 08-The Wind Cries Mary.wav 4:46.68 50609440 -b- -- ----- 09-Purple Haze.wav 7:57.68 84301744 -b- -- ----- 10-Wild Thing.wav 1:23.53 14767028 -b- -- ----- 11-outro.wav 43:32.12 460785700 B (totals for 11 files, 1.0000 overall compression ratio)