You searched for:

Selected: Neil Young - Early Show - 1973-11-15

Front Cover Art
Click to expand Front Artwork
Rear Cover Art (No Image)
Rear Artwork Unavailable
Insert Cover Art (No Image)
Insert Artwork Unavailable

MD5 Record Set: Disc 1 -    Disc 2 -    Disc 3 -    Disc 4 -    Disc 5 -    Disc 6
  • Band / Artist
  • Concert Date
  • RoIO Title
  • Venue
  • Neil Young
  • 1973-11-15
  • Early Show
  • Colden Auditorium, Queens College
  • Town / City
  • State / Prov.
  • Country
  • File Format
  • Flushing
  • NY
  • USA
  • FLAC
  • Recorder Number
  • Sound Quality
  • Entered By
  • Date Entered
  • unknown
  • Very Good
  • Harm
  • 29th of September 2008
  • Taper - Unknown
					
  • Neil Young & the Santa Monica Flyers Colden Auditorium Queens College Flushing, NY 11-15-1973 Early Show Disc One (46:17) 01 Don't Be Denied 02 When You Dance I can Really Love 03 Tonight's the Night 04 World on a String 05 New Mama 06 Roll Another Number 07 Tired Eyes 08 The Needle and the Damage Done 09 Flying on the Ground is Wrong 10 Human Highway Disc Two (37:07) 01 audience noise, tuning 02 Helpless 03 I Believe in You 04 Cinnamon Girl 05 Cowgirl in the Sand 06 Encore: Tonight's the Night The Santa Monica Flyers: Nils Lofgren, guitar Ben Keith, steel guitar, pedal steel Ralph Molina, drums Billy Talbot, bass Neil Young, guitar, lead vocals Master Audience Cassette: (Mono recording with one mic) AKG D1000E Mic > Sony 110 Cassette Deck Taped onto TDK 120-SD tape, approx 20th row orchestra A/D conversion & CD transfer by Mark C, Dec 2003 Shntool output: length expanded size cdr WAVE problems filename 6:12.28 65686700 --- -- ---xx ny1973-11-15-early-d1t01.flac 5:31.40 58482524 --- -- ---xx ny1973-11-15-early-d1t02.flac 6:28.33 68520860 --- -- ---xx ny1973-11-15-early-d1t03.flac 4:01.01 42514796 --- -- ---xx ny1973-11-15-early-d1t04.flac 4:35.26 48571196 --- -- ---xx ny1973-11-15-early-d1t05.flac 3:13.55 34174604 --- -- ---xx ny1973-11-15-early-d1t06.flac 5:55.67 62779628 --- -- ---xx ny1973-11-15-early-d1t07.flac 2:52.26 30401996 --- -- ---xx ny1973-11-15-early-d1t08.flac 4:34.49 48448892 --- -- ---xx ny1973-11-15-early-d1t09.flac 2:52.13 30371420 --- -- ---xx ny1973-11-15-early-d1t10.flac 0:36.16 6388076 --- -- ---xx ny1973-11-15-early-d2t01.flac 4:41.05 49580204 --- -- ---xx ny1973-11-15-early-d2t02.flac 5:08.44 54434732 --- -- ---xx ny1973-11-15-early-d2t03.flac 5:33.56 58872956 --- -- ---xx ny1973-11-15-early-d2t04.flac 12:01.24 127240892 --- -- ---xx ny1973-11-15-early-d2t05.flac 9:06.10 96337964 --- -- ---xx ny1973-11-15-early-d2t06.flac 83:24.43 882807440 B (totals for 16 files, 0.6136 overall compression ratio) There were no sector boundary errors.