Selected: John Paul Jones - Untitled - 2007-06-16

Front Cover Art (No Image)
Front Artwork Unavailable
Rear Cover Art (No Image)
Rear Artwork Unavailable
Insert Cover Art (No Image)
Insert Artwork Unavailable

MD5 Record Set:Disc 1 -    Disc 2 -    Disc 3 -    Disc 4 -    Disc 5 -    Disc 6
  • Band / Artist
  • Concert Date
  • RoIO Title
  • Venue
  • John Paul Jones
  • 2007-06-16
  • Untitled
  • Bonaroo Festival - The Other Tent
  • Town / City
  • State / Prov.
  • Country
  • File Format
  • Manchester
  • TN
  • USA
  • FLAC
  • Recorder Number
  • Sound Quality
  • Entered By
  • Date Entered
  • unknown
  • Very Good
  • Cygnals
  • 4th of October 2008
  • Taper - Unknown
  • Bonnaroo Superjam 2007-06-16 The Other Tent Manchester, TN Source: MG210 > Korg MR-1000 > balanced analog out > JB3 (line-in, -3db, 16bit/48kHz) Post: WaveLab (Edit/Fades/Resample to 16/44.1) > CDWave (Tracking) > FLAC lvl 8 > Traders Little Helper (FLAC verification/ Shntool -len/ ffp gen.) Thanks to Kieth from Team Richmond for the patch! Recorded & Edited by rowjimmy (rowjimmy2 AT gmail DOT com) Total Time 96:57.09 Disc 1 01 Intro/Tuning 02 When The Levee Breaks* 03 Good Times Bad Times > 04 Bass Solo > Ramble On Jam > 05 Inner City Blues (Makes Me Wanna Holler)** 06 Drums Jam > 07 Dazed & Confused*** Disc 2 01 Banter 02 Superstitious^ > 03 Them Changes^ > 04 It's Your Thing^~ 05 Introductions Band: John Paul Jones - bass Ben Harper - slide guitar & vocals Ahmir "?uestlove" Thompson - drums Notes: * w/ Michael Ward (Ben Harper) on Bass & John Paul Jones on second lap steel guitar ** Cissy Strut teases ***Immigrant Song teases ^with Kirk Douglas (The Roots) on guitar & vocals ~I Wanna Take You Higher teases Set is dated June 16 as it began after 12am. Inner City Blues is by Marvin Gaye Superstitious is by Stevie Wonder Them Changes is by Buddy Miles (performed by Band of Gypsies) It's Your Thing is by The Isley Brothers Tracked for CD-R but, both discs may be joined seamlessly for longer media. shntool output: length expanded size cdr WAVE problems filename 2:32.48 26925740 --- -- ---xx superjam2007-06-16d1t01.flac 12:06.49 128181692 --- -- ---xx superjam2007-06-16d1t02.flac 7:41.26 81381596 --- -- ---xx superjam2007-06-16d1t03.flac 8:50.53 93616700 --- -- ---xx superjam2007-06-16d1t04.flac 10:04.14 106578572 --- -- ---xx superjam2007-06-16d1t05.flac 1:51.73 19752140 --- -- ---xx superjam2007-06-16d1t06.flac 30:38.57 324357308 --- -- ---xx superjam2007-06-16d1t07.flac 1:33.18 16447580 --- -- ---xx superjam2007-06-16d2t01.flac 4:56.29 52282652 --- -- ---xx superjam2007-06-16d2t02.flac 7:28.39 79118972 --- -- ---xx superjam2007-06-16d2t03.flac 7:50.59 83046812 --- -- ---xx superjam2007-06-16d2t04.flac 1:21.69 14450732 --- -- ---xx superjam2007-06-16d2t05.flac 96:57.09 1026140496 B (totals for 12 files, 0.5619 overall compression ratio) FFP: superjam2007-06-16d1t01.flac:a682b2e9e5f44960aa8f5ee79347e813 superjam2007-06-16d1t02.flac:ae4624dc0125edf10061e8ead7bcac95 superjam2007-06-16d1t03.flac:6fc6aecf2aa006e6793cd9e51f724059 superjam2007-06-16d1t04.flac:ebc420680c6a968565b6268d4486db25 superjam2007-06-16d1t05.flac:18b465f84d9fd0811352402b5e0cfba2 superjam2007-06-16d1t06.flac:f69a378c1a9fad30ac145e2af89ff775 superjam2007-06-16d1t07.flac:ef687af7e73aa4cf823e89eeabc08b7c superjam2007-06-16d2t01.flac:81526acf14ce9ed96ef2c32aa741b039 superjam2007-06-16d2t02.flac:060deccb88e26f4382dcf313fb6cee66 superjam2007-06-16d2t03.flac:87a1106c7d6b211e25806cbd8019bff9 superjam2007-06-16d2t04.flac:08398670855d8ff48ae7ce282b5fa642 superjam2007-06-16d2t05.flac:17fb3a75d7a7a08bb874714bd36bc2a0