Front Cover Art
Click to expand Front Artwork
Rear Cover Art
Click to expand Rear Artwork
Insert Cover Art (No Image)
Insert Artwork Unavailable

MD5 Record Set:    Disc 1 -    Disc 2 -    Disc 3 -    Disc 4 -    Disc 5 -    Disc 6
  • Band / Artist
  • Concert Date
  • RoIO Title
  • Venue
  • Wishbone Ash
  • 1972-05-25
  • Fighters and Warriors
  • Paris Theater
  • Town / City
  • State / Prov.
  • Country
  • File Format
  • London
  • N/A
  • England
  • FLAC
  • Recorder Number
  • Sound Quality
  • Entered By
  • Date Entered
  • Soundboard
  • Excellent
  • Groovinpict
  • 15th of October 2008
					
  • Wishbone Ash: "Fighters & Warriors" May 25, 1972 FM A+ Live At The Paris Theater, London, England(BBC In Concert), 6 Tracks, Total Time: 55:24 Silver CD>CD-R>EAC>WAV>Flac(L8) 1-Disc: 01. Time Was 10:17 02. Blowin' Free 5:24 03. The Warrior 5:34 04. Throw Down The Sword 6:38 05. The King Will Come 7:41 06. Phoenix 19:44 Total Time: 55:18 ______________________________________________________________ WishboneAsh_London72_1dt01.flac:658ff877b9a8649675ae4fe89884ed33 WishboneAsh_London72_1dt02.flac:0b560d18d25cc75b5648a330015a72e9 WishboneAsh_London72_1dt03.flac:a9d8e9f4b2bc4178a3453abe1e216e0f WishboneAsh_London72_1dt04.flac:56aad0245890793ee44d3e7476e5ab91 WishboneAsh_London72_1dt05.flac:6888badae03440179963f19d9282d660 WishboneAsh_London72_1dt06.flac:3c000fc568677d6742f4a31eb8a7a6dc _______________________________________________________________ EAC extraction logfile from 19. July 2004, 17:36 for CD Wishbone Ash / Fighters an Warriors Used drive : PLEXTOR CD-R PX-W1210A Adapter: 3 ID: 1 Read mode : Secure with C2, accurate stream, disable cache Read offset correction : -1498 Overread into Lead-In and Lead-Out : Yes Used output format : Internal WAV Routines 44.100 Hz; 16 Bit; Stereo Other options : Fill up missing offset samples with silence : Yes Delete leading and trailing silent blocks : Yes Native Win32 interface for Win NT & 2000 Track 1 Filename C:\KooterB's\Wavs\WishboneAsh_London73_1dt01.wav Peak level 99.2 % Track quality 100.0 % Test CRC 0E1047C7 Copy CRC 0E1047C7 Copy OK Track 2 Filename C:\KooterB's\Wavs\WishboneAsh_London73_1dt02.wav Peak level 95.9 % Track quality 100.0 % Test CRC E98A9831 Copy CRC E98A9831 Copy OK Track 3 Filename C:\KooterB's\Wavs\WishboneAsh_London73_1dt03.wav Peak level 84.5 % Track quality 100.0 % Test CRC 2DC709E7 Copy CRC 2DC709E7 Copy OK Track 4 Filename C:\KooterB's\Wavs\WishboneAsh_London73_1dt04.wav Peak level 90.3 % Track quality 100.0 % Test CRC 07AA6F92 Copy CRC 07AA6F92 Copy OK Track 5 Filename C:\KooterB's\Wavs\WishboneAsh_London73_1dt05.wav Peak level 87.9 % Track quality 100.0 % Test CRC C8A73200 Copy CRC C8A73200 Copy OK Track 6 Filename C:\KooterB's\Wavs\WishboneAsh_London73_1dt06.wav Peak level 98.7 % Track quality 100.0 % Test CRC E5267D08 Copy CRC E5267D08 Copy OK No errors occured End of status report