Front Cover Art
Click to expand Front Artwork
Rear Cover Art
Click to expand Rear Artwork
Insert Cover Art
Click to expand Insert Artwork

MD5 Record Set:    Disc 1    -    Disc 2 -    Disc 3 -    Disc 4 -    Disc 5 -    Disc 6
  • Band / Artist
  • Concert Date
  • RoIO Title
  • Venue
  • Pink Floyd
  • 1972-03-13
  • The Great Gig On The Moon
  • Nakanoshima Sports Center
  • Town / City
  • State / Prov.
  • Country
  • File Format
  • Sapporo
  • N/A
  • Japan
  • FLAC
  • Recorder Number
  • Sound Quality
  • Entered By
  • Date Entered
  • Rec 1
  • Very Good
  • MuabDib
  • 24th of October 2008
					
  • length expanded size cdr WAVE problems filename 0:55.69 9864332 --- -- ---xx 001 - Speak To Me.flac 3:00.54 31879052 --- -- ---xx 002 - Breathe.flac 6:17.01 66505196 --- -- ---xx 003 - On The Run.flac 6:29.35 68701964 --- -- ---xx 004 - Time.flac 1:06.20 11689484 --- -- ---xx 005 - Breathe (Reprise).flac 4:33.61 48300716 --- -- ---xx 006 - The Great Gig In The Sky.flac 7:35.30 80332604 --- -- ---xx 007 - Money.flac 7:23.70 78309884 --- -- ---xx 008 - Us And Them.flac 4:49.67 51137228 --- -- ---xx 009 - Any Colour You Like.flac 2:31.74 26810492 --- -- ---xx 010 - Brain Damage.flac 2:20.68 24855980 --- -- ---xx 011 - Eclipse.flac 10:17.57 108972908 --- -- ---xx 012 - One Of These Days.flac 12:32.22 132704588 --- -- ---xx 013 - Careful With That Axe, Eugene.flac 69:55.28 740064428 B (totals for 13 files, 0.4776 overall compression ratio)