You searched for: Konzerthaus

Selected: Jimi Hendrix - Stimmen der Welt - 1969-01-22

Front Cover Art
Click to expand Front Artwork
Rear Cover Art
Click to expand Rear Artwork
Insert Cover Art
Click to expand Insert Artwork

MD5 Record Set: Disc 1 -    Disc 2 -    Disc 3 -    Disc 4 -    Disc 5 -    Disc 6
  • Band / Artist
  • Concert Date
  • RoIO Title
  • Venue
  • Jimi Hendrix
  • 1969-01-22
  • Stimmen der Welt
  • The Konzerthaus
  • Town / City
  • State / Prov.
  • Country
  • File Format
  • Vienna
  • N/A
  • Austria
  • FLAC
  • Recorder Number
  • Sound Quality
  • Entered By
  • Date Entered
  • Rec 1
  • Fair
  • JamminJ
  • 30th of November 2008
  • Taper - Unknown
					
  • >> Jimi Hendrix Experience >> CD "Stimmen Der Welt" (Dandelion DL 094) >> Stimmen Der Welt, Konzerthaus, Vienna, Austria >> January 22, 1969 (both shows, missing last song of the 2nd set) >> VG/VG- Audience Recording >> Silver > CDR > EAC > WAV > FLAC >> Artwork Included ============================================================== First Set: 1. INTRO 2. COME ON (Part 1) 3. HEY JOE 4. FIRE 5. GETTING MY HEART BACK TOGETHER AGAIN 6. SPANISH CASTLE MAGIC / DRUM SOLO 7. FOXY LADY 8. STONE FREE 9. PURPLE HAZE Second Set: 10. ARE YOU EXPERIENCED / DRUM SOLO 11. FIRE 12. LOVER MAN 13. SUNSHINE OF YOUR LOVE length expanded size cdr WAVE problems filename 2:59.07 31592108 --- -- ---xx Track01.flac 5:47.05 61222604 --- -- ---xx Track02.flac 4:23.55 46522604 --- -- ---xx Track03.flac 3:54.03 41284700 --- -- ---xx Track04.flac 6:17.07 66519308 --- -- ---xx Track05.flac 10:38.38 112632620 --- -- ---xx Track06.flac 4:55.55 52167404 --- -- ---xx Track07.flac 3:26.00 36338444 --- -- ---xx Track08.flac 3:55.30 41524604 --- -- ---xx Track09.flac 13:01.12 137796668 --- -- ---xx Track10.flac 3:57.60 41947964 --- -- ---xx Track11.flac 5:04.48 53738540 --- -- ---xx Track12.flac 8:24.27 88969148 --- -- ---xx Track13.flac 76:44.47 812256716 B (totals for 13 files, 0.3361 overall compression ratio) ============================================================== Enjoy, Share & Preserve Quality !!! Brought to You by BP [March 2006]