Front Cover Art
Click to expand Front Artwork
Rear Cover Art
Click to expand Rear Artwork
Insert Cover Art (No Image)
Insert Artwork Unavailable

MD5 Record Set:    Disc 1    -    Disc 2 -    Disc 3 -    Disc 4 -    Disc 5 -    Disc 6
  • Band / Artist
  • Concert Date
  • RoIO Title
  • Venue
  • Led Zeppelin
  • 1969-10-12
  • Untitled
  • Lyceum Ballroom
  • Town / City
  • State / Prov.
  • Country
  • File Format
  • London
  • N/A
  • England
  • FLAC
  • Recorder Number
  • Sound Quality
  • Entered By
  • Date Entered
  • Rec 1
  • Poor
  • Marooned
  • 9th of February 2009
					
  • Led Zeppelin, Lyceum Ballroom October 12, 1969, London, England Audience Recording Master > Cassette > DAT > CDR 1. Communication Breakdown 2. I Can't Quit You 3. Heartbreaker 4. You Shook Me 5. What Is and What Should Never Be 6. Dazed and Confused 7. How Many More Times Track07.flac:0215281ad17d1ce7ab7377b2e6d5c7dc Track01.flac:b9d18b943a580cc57c15faa3d5037796 Track02.flac:68400345048bc0fa52d739142085880f Track03.flac:e7f41c22fe7195910d7dc5151e9ae540 Track04.flac:7df805162b9a5c7d56530d7cbb4ea8b8 Track05.flac:72cb9cb95e9414b05b0c1abc9ddced79 Track06.flac:2567c28838f85e9503b8a88813dc4f71 length expanded size cdr WAVE problems filename 3:57.29 41875052 --- -- ---xx Track01.flac 6:39.11 70409516 --- -- ---xx Track02.flac 5:24.08 57172460 --- -- ---xx Track03.flac 8:05.13 85584620 --- -- ---xx Track04.flac 4:24.30 46640204 --- -- ---xx Track05.flac 15:04.12 159493868 --- -- ---xx Track06.flac 15:14.43 161330780 --- -- ---xx Track07.flac 58:48.71 622506500 B (totals for 7 files, 0.6059 overall compression ratio)