Front Cover Art (No Image)
Front Artwork Unavailable
Rear Cover Art (No Image)
Rear Artwork Unavailable
Insert Cover Art (No Image)
Insert Artwork Unavailable

MD5 Record Set:    Disc 1    -    Disc 2 -    Disc 3 -    Disc 4 -    Disc 5 -    Disc 6
  • Band / Artist
  • Concert Date
  • RoIO Title
  • Venue
  • Pink Floyd
  • 1977-05-09
  • fob.menke.motb.0053.flac16
  • Alameda Coliseum
  • Town / City
  • State / Prov.
  • Country
  • File Format
  • Oakland
  • CA
  • USA
  • FLAC
  • Recorder Number
  • Sound Quality
  • Entered By
  • Date Entered
  • Rec 1
  • Very Good
  • fatoldsun
  • 9th of February 2009
					
  • MOTB Release: 0053 16/44.1 Release Date: 2009-01-29 Special: Rhinotrocity #13 Band: Pink Floyd Date: 1977-05-09 (Monday) Venue: Oakland / Alameda Coliseum Location: Oakland, Ca. Analog Audience Source: FOB Master Cassettes (MAC) Medium Stock Brands: MAC = 2 x TDK SA90 Analog Lineage: 2 x sony ECM 280 => Sony SD158 >> MAC Analog Sound Preservation: MAC >> Nakamichi CR-7a >> Korg MR-1000 >> DSF [1-bit 5.6448 MHz Stereo] >> Korg MR-1000 => Korg AudioGate >> WAV [24/96] Taped By: Reinhart Holhwein Transfer By: Bob Menke Mastering By: Derek McCabe Set 1: d1t01 - Sheep d1t02 - Pigs on the Wing, Pt. 1 d1t03 - Dogs d1t04 - Pigs on the Wing, Pt. 2 d1t05 - Pigs (Three Different Ones) Set 2: d2t01 - Shine on You Crazy Diamond, Pts. 1-5 d2t02 - Welcome to the Machine d2t03 - Have a Cigar d2t04 - Wish You Were Here d2t05 - Shine on You Crazy Diamond, Pts. 6-9 Set 3: Encores: d3t01 - Money d3t02 - Us and Them d3t03 - Careful With That Axe, Eugene Notes: Enjoy this.. Tape flips fixed. This Can also be burned as a 2 disk set where: d3t01-02 are moved to the end of disk 2 and d3t03 is moved to the end of disk 1 FFP: pf1977-05-09.fob.menke.motb.0053.d1t01.flac:e3c28bbbb8de5dee00df13e17e85ec74 pf1977-05-09.fob.menke.motb.0053.d1t02.flac:2e31f426f861e23ca15886da3224ab54 pf1977-05-09.fob.menke.motb.0053.d1t03.flac:65467e324e1f288afeb2fee7d09224f0 pf1977-05-09.fob.menke.motb.0053.d1t04.flac:42af06f34d5f66d8dc90d1dc256f7524 pf1977-05-09.fob.menke.motb.0053.d1t05.flac:16fd0f5f328de15e8345dea512958baf pf1977-05-09.fob.menke.motb.0053.d2t01.flac:dff6838c79a602a5b9514bbeb23d4ed4 pf1977-05-09.fob.menke.motb.0053.d2t02.flac:18ef2f71a5c39506a89769dce94b29f9 pf1977-05-09.fob.menke.motb.0053.d2t03.flac:402e21ac0b67f488ac3f125ecad13d73 pf1977-05-09.fob.menke.motb.0053.d2t04.flac:cd39352091b4a275bd4b78a289892422 pf1977-05-09.fob.menke.motb.0053.d2t05.flac:0962d8d32d81defd58151798db520e65 pf1977-05-09.fob.menke.motb.0053.d3t01.flac:aadebb62f98a318e1ac7b110438ba219 pf1977-05-09.fob.menke.motb.0053.d3t02.flac:d931261e689ac283e595e8e5a357dc8f pf1977-05-09.fob.menke.motb.0053.d3t03.flac:ee7025695d36806c1bae87ceac9b8f5e No errors occured. ST5: e3c28bbbb8de5dee00df13e17e85ec74 [shntool] pf1977-05-09.fob.menke.motb.0053.d1t01.flac 2e31f426f861e23ca15886da3224ab54 [shntool] pf1977-05-09.fob.menke.motb.0053.d1t02.flac 65467e324e1f288afeb2fee7d09224f0 [shntool] pf1977-05-09.fob.menke.motb.0053.d1t03.flac 42af06f34d5f66d8dc90d1dc256f7524 [shntool] pf1977-05-09.fob.menke.motb.0053.d1t04.flac 16fd0f5f328de15e8345dea512958baf [shntool] pf1977-05-09.fob.menke.motb.0053.d1t05.flac dff6838c79a602a5b9514bbeb23d4ed4 [shntool] pf1977-05-09.fob.menke.motb.0053.d2t01.flac 18ef2f71a5c39506a89769dce94b29f9 [shntool] pf1977-05-09.fob.menke.motb.0053.d2t02.flac 402e21ac0b67f488ac3f125ecad13d73 [shntool] pf1977-05-09.fob.menke.motb.0053.d2t03.flac cd39352091b4a275bd4b78a289892422 [shntool] pf1977-05-09.fob.menke.motb.0053.d2t04.flac 0962d8d32d81defd58151798db520e65 [shntool] pf1977-05-09.fob.menke.motb.0053.d2t05.flac aadebb62f98a318e1ac7b110438ba219 [shntool] pf1977-05-09.fob.menke.motb.0053.d3t01.flac d931261e689ac283e595e8e5a357dc8f [shntool] pf1977-05-09.fob.menke.motb.0053.d3t02.flac ee7025695d36806c1bae87ceac9b8f5e [shntool] pf1977-05-09.fob.menke.motb.0053.d3t03.flac No errors occured. SHNTOOL INFO: length expanded size cdr WAVE problems fmt ratio filename 11:22.67 120462428 B --- -- ---xx flac 0.6107 pf1977-05-09.fob.menke.motb.0053.d1t01.flac 2:17.57 24300908 B --- -- ---xx flac 0.5584 pf1977-05-09.fob.menke.motb.0053.d1t02.flac 18:45.26 198511196 B --- -- ---xx flac 0.6160 pf1977-05-09.fob.menke.motb.0053.d1t03.flac 2:34.47 27276188 B --- -- ---xx flac 0.5723 pf1977-05-09.fob.menke.motb.0053.d1t04.flac 17:31.71 185563436 B --- -- ---xx flac 0.6299 pf1977-05-09.fob.menke.motb.0053.d1t05.flac 13:53.55 147070604 B --- -- ---xx flac 0.5831 pf1977-05-09.fob.menke.motb.0053.d2t01.flac 8:09.70 86424284 B --- -- ---xx flac 0.5968 pf1977-05-09.fob.menke.motb.0053.d2t02.flac 6:06.35 64644764 B --- -- ---xx flac 0.6188 pf1977-05-09.fob.menke.motb.0053.d2t03.flac 6:55.50 73323644 B --- -- ---xx flac 0.5662 pf1977-05-09.fob.menke.motb.0053.d2t04.flac 21:56.72 232311788 B --- -- ---xx flac 0.5979 pf1977-05-09.fob.menke.motb.0053.d2t05.flac 10:51.42 114935228 B --- -- ---xx flac 0.5863 pf1977-05-09.fob.menke.motb.0053.d3t01.flac 8:28.09 89632412 B --- -- ---xx flac 0.6004 pf1977-05-09.fob.menke.motb.0053.d3t02.flac 10:19.14 109224572 B --- -- ---xx flac 0.5247 pf1977-05-09.fob.menke.motb.0053.d3t03.flac 139:14.15 1473681452 B 0.5959 (13 files) No errors occured.