You searched for: O2 Arena

Selected: Led Zeppelin - Ahmet Ertegun Tribute (Remastered) - 2007-12-10

Front Cover Art (No Image)
Front Artwork Unavailable
Rear Cover Art (No Image)
Rear Artwork Unavailable
Insert Cover Art (No Image)
Insert Artwork Unavailable

MD5 Record Set: Disc 1 -    Disc 2 -    Disc 3 -    Disc 4 -    Disc 5 -    Disc 6
  • Band / Artist
  • Concert Date
  • RoIO Title
  • Venue
  • Led Zeppelin
  • 2007-12-10
  • Ahmet Ertegun Tribute (Remastered)
  • O2 Arena
  • Town / City
  • State / Prov.
  • Country
  • File Format
  • London
  • N/A
  • England
  • FLAC
  • Recorder Number
  • Sound Quality
  • Entered By
  • Date Entered
  • unknown
  • Good
  • patpier
  • 6th of April 2009
  • Taper - Unknown
					
  • Led Zeppelin December 10, 2007 The O2 Arena - London, England Ahmet Ertegun Tribute Taper: Clay C. Brennecke - (clayb@sc.rr.com) http://home.sc.rr.com/adrenalinezone/ Source: SP-CMC-2 (AT831s) > SP SB-2 (battery box) > PCM-M1 (16/44.1) > DAT Master Location: 33.5 feet from stage FOB DFC Transfer: DAT Master > TASCAM DA-20 (S/PDIF out) > LynxTWO-B Audio Reference Interface (S/PDIF in) > Wavelab 6.0 (Transfer by Todd Evans - December 2007) Raw (non-mastered) tracked files previously torrented. This torrent has been mastered in Studio GEMS. Enjoy. Disk One: d1t01 Intro (2:01) d1t02 Good Time, Bad Times (3:11) d1t03 Ramble On (5:44) d1t04 Black Dog (6:07) d1t05 In My Time Of Dying (11:30) d1t06 For Your Life (7:04) d1t07 Trampled Under Foot (6:51) d1t08 Nobody's Fault But Mine (7:49) d1t09 No Quarter (9:33) d1t10 Since I've Been Loving You (7:52) Disk Two: d2t01 Dazed and Confused (12:46) d2t02 Stairway To Heaven (8:52) d2t03 The Song Remains The Same (5:52) d2t04 Jason Sings! (1:12) d2t05 Misty Mountain Hop (5:05) d2t06 Kashmir (12:53) d2t07 Whole Lotta Love (10:37) d2t08* Rock and Roll (20:18) *Clay Brennecke Audio History included in d2t08 A video documentary of the making of this recording is in the works... Please email clayb@sc.rr.com for volunteer opportunities and/or more information. Thank you to everyone who helped make this recording possible in one way or another: Jeff Silberman, Alex Coluzzi, George Wang, David Stone, Sandy Papas, Amber McDaniel, Nick Georges Special thanks to Todd Evans for his expertise in transferring and tracking the Master DATs and to Studio GEMS. flac fingerprint file generated by Trader's Little Helper generated on January 5, 2008, at 1:16 pm LZ2007.12.10.d1t01.flac:375bb15b1da54ff9495e886664568b65 LZ2007.12.10.d1t02.flac:1617d417bf6893701f754706a8d997bd LZ2007.12.10.d1t03.flac:c46cbdbac5ec568d570084a23556d0bc LZ2007.12.10.d1t04.flac:cc34c3c9e07ac9f83a1cfb352d4acd4d LZ2007.12.10.d1t05.flac:dd74787c1e6cb55b13507215b92c1faf LZ2007.12.10.d1t06.flac:d18a806dea4a7433eff7e53bf2b0d79f LZ2007.12.10.d1t07.flac:594b26951ea1145bca8fa1f87b4f3f18 LZ2007.12.10.d1t08.flac:09648fa82ec537f52b9cb581f56c7c7c LZ2007.12.10.d1t09.flac:3f04d7734014c030c83b16f673430d19 LZ2007.12.10.d1t10.flac:cbfc233191c6aa8de2e2836a6b3eab13 LZ2007.12.10.d2t01.flac:a8bc9ae7abbc949a5ca4ba595fe123da LZ2007.12.10.d2t02.flac:1955b7da3cf365f3ada4476d010d9262 LZ2007.12.10.d2t03.flac:27debf91aa850915485ce8055cebb714 LZ2007.12.10.d2t04.flac:f88ab770431e8d329f333be86b58e886 LZ2007.12.10.d2t05.flac:cfa415809fdd84cc1529946c03db2db4 LZ2007.12.10.d2t06.flac:d5385bee3a9030f1a1190d17b4e674e0 LZ2007.12.10.d2t07.flac:d082da4c65c5ba724d7300aa1cb40069 LZ2007.12.10.d2t08.flac:f3191dd3cdde4d62919425743e4f2e75 length expanded size cdr WAVE problems filename 2:01.07 21360908 --- -- ---xx LZ2007.12.10.d1t01.flac 3:09.67 33497228 --- -- ---xx LZ2007.12.10.d1t02.flac 5:44.32 60756908 --- -- ---xx LZ2007.12.10.d1t03.flac 6:06.67 64720028 --- -- ---xx LZ2007.12.10.d1t04.flac 11:30.30 121786604 --- -- ---xx LZ2007.12.10.d1t05.flac 7:03.54 74744252 --- -- ---xx LZ2007.12.10.d1t06.flac 6:50.39 72415772 --- -- ---xx LZ2007.12.10.d1t07.flac 7:49.10 82755164 --- -- ---xx LZ2007.12.10.d1t08.flac 9:33.08 101096060 --- -- ---xx LZ2007.12.10.d1t09.flac 7:52.13 83291420 --- -- ---xx LZ2007.12.10.d1t10.flac 12:46.26 135183596 --- -- ---xx LZ2007.12.10.d2t01.flac 8:52.22 93896588 --- -- ---xx LZ2007.12.10.d2t02.flac 5:52.26 62153996 --- -- ---xx LZ2007.12.10.d2t03.flac 1:12.26 12761996 --- -- ---xx LZ2007.12.10.d2t04.flac 5:05.35 53884364 --- -- ---xx LZ2007.12.10.d2t05.flac 12:53.18 136399580 --- -- ---xx LZ2007.12.10.d2t06.flac 10:37.32 112442108 --- -- ---xx LZ2007.12.10.d2t07.flac 20:18.02 214859948 --- -- ---xx LZ2007.12.10.d2t08.flac 145:18.64 1538006520 B (totals for 18 files, 0.5453 overall compression ratio)