Front Cover Art (No Image)
Front Artwork Unavailable
Rear Cover Art (No Image)
Rear Artwork Unavailable
Insert Cover Art (No Image)
Insert Artwork Unavailable

MD5 Record Set:    Disc 1    -    Disc 2    -    Disc 3 -    Disc 4 -    Disc 5 -    Disc 6
  • Band / Artist
  • Concert Date
  • RoIO Title
  • Venue
  • Led Zeppelin
  • 1985-07-13
  • Unknown
  • Live Aid
  • Town / City
  • State / Prov.
  • Country
  • File Format
  • Philadelphia
  • PA
  • USA
  • FLAC
  • Recorder Number
  • Sound Quality
  • Entered By
  • Date Entered
  • Soundboard
  • Very Good
  • Cygnals
  • 26th of July 2009
  • Taper
  • Unknown
					
  • Led Zeppelin 1985.07.13 Philadelphia, Pennsylvania JFK Stadium "Live Aid" Soundboard Recording Master Cassette (WBCN Boston) > CDR > FLAC Level 8 Normalized, gaps removed, retracked by Presence. Tracks 1. Introduction 2. Rock and Roll 3. Whole Lotta Love 4. Stairway to Heaven 5. Interview ----------------------------------------------------------------------------------------------------------- Sharky's Notes: Led Zeppelin July 13, 1985 My Master Cassette WBCN Boston to CDR On a very hot day (95+) in Philadelphia I waited with my buddies all day in scorching heat in the 10th row.AT the same time back in Boston another friend was recording the show for me on cassette.Sure it's a crappy performance but it was not about that.You had to be there to feel the power and glory just as the sun went down.Having missed the 1980 Tour this time we would not be denied. Sharky ----------------------------------------------------------------------------------------------------------- 01 - Introduction.flac: audio data is cut on a sector boundary. 02 - Rock and Roll.flac: audio data is cut on a sector boundary. 03 - Whole Lotta Love.flac: audio data is cut on a sector boundary. 04 - Stairway to Heaven.flac: audio data is cut on a sector boundary. 05 - Interview.flac: audio data is cut on a sector boundary. There were no sector boundary errors. 01 - Introduction.flac: tested ok (file is decodable without error). 02 - Rock and Roll.flac: tested ok (file is decodable without error). 03 - Whole Lotta Love.flac: tested ok (file is decodable without error). 04 - Stairway to Heaven.flac: tested ok (file is decodable without error). 05 - Interview.flac: tested ok (file is decodable without error). No errors occured. length expanded size cdr WAVE problems fmt ratio filename 1:09.06 12185756 B --- -- ---xx flac 0.5735 01 - Introduction.flac 4:41.58 49704860 B --- -- ---xx flac 0.6976 02 - Rock and Roll.flac 5:45.66 61013276 B --- -- ---xx flac 0.6974 03 - Whole Lotta Love.flac 9:34.49 101368892 B --- -- ---xx flac 0.6727 04 - Stairway to Heaven.flac 6:40.24 70616492 B --- -- ---xx flac 0.4249 05 - Interview.flac 27:51.53 294889276 B 0.6186 (5 files) No errors occured. 01 - Introduction.flac:43c890758582f5f9dd99f33f15800e1b 02 - Rock and Roll.flac:3de16c104dcd6820921f7e3ff760b506 03 - Whole Lotta Love.flac:ca25d078c18f902e76df05cd9b1ad910 04 - Stairway to Heaven.flac:141c99e2d6157119fc0386d2bf36ef9c 05 - Interview.flac:e266bdf0f5c919e2916f19ee4fe5e859 No errors occured.