You searched for:

Selected: Roger Waters - Untitled (.fob.schoeps.miller) - 1984-07-21

Front Cover Art (No Image)
Front Artwork Unavailable
Rear Cover Art (No Image)
Rear Artwork Unavailable
Insert Cover Art (No Image)
Insert Artwork Unavailable

MD5 Record Set: Disc 1 - Disc 2 -    Disc 3 -    Disc 4 -    Disc 5 -    Disc 6
  • Band / Artist
  • Concert Date
  • RoIO Title
  • Venue
  • Roger Waters
  • 1984-07-21
  • Untitled (.fob.schoeps.miller)
  • Brendyn Byrne Arena
  • Town / City
  • State / Prov.
  • Country
  • File Format
  • East Rutherford
  • NJ
  • USA
  • FLAC
  • Recorder Number
  • Sound Quality
  • Entered By
  • Date Entered
  • unknown
  • Good
  • davebowman
  • 26th of April 2010
  • Taper - Unknown
					
  • Roger Waters & Eric Clapton Brendyn Byrne Arena, NJ 1984-07-21 FOB Schoeps Cassette Master > DAT > CD Source discs supplied By Charlie Miller charliemiller87@earthlink.net June 2, 2008 Disc 1 Set 1 d1t01 Set The Controls For the Heart of The Sun d1t02 Money d1t03 If d1t04 Welcome To The Machine d1t05 Have A Cigar d1t06 Wish You Were Here d1t07 Pigs On The Wing d1t08 In The Flesh d1t09 Nobody Home d1t10 Hey You > The Gunners Dream > Shane Disc 2 Set 2 d2t01 Traveling Abroad > Running Shoes d2t02 Arabs With Knives > For The First Time Today Part I > Sexual Revolution d2t03 The Remains Of Our Love d2t04 Go Fishing > For The First Time Today Part II > Dunroamin', Duncarin', Dunlivin' d2t05 The Pros & Cons Of Hitch Hiking d2t06 Every Stranger Eyes d2t07 The Moment Of Clarity encore: d2t08 Brain Damage/Eclipse Roger Waters bass guitar, vocals Eric Clapton guitar Tim Renwick guitar, bass guitar Andy Newmark drums Chris Stainton keyboards, bass guitar Michael Kamen keyboards Mel Collins saxophone Doreen Chanter backing vocals Katie Kissoon backing vocals length expanded size cdr WAVE problems filename 8:46.39 92878172 --- -- ----- rw1984-07-21d1t01.wav 7:39.67 81125228 --- -- ----- rw1984-07-21d1t02.wav 4:32.25 48039644 --- -- ----- rw1984-07-21d1t03.wav 7:49.04 82741052 --- -- ----- rw1984-07-21d1t04.wav 7:19.12 77467868 --- -- ----- rw1984-07-21d1t05.wav 6:48.57 72105308 --- -- ----- rw1984-07-21d1t06.wav 1:49.69 19389932 --- -- ----- rw1984-07-21d1t07.wav 4:30.31 47700956 --- -- ----- rw1984-07-21d1t08.wav 4:30.27 47691548 --- -- ----- rw1984-07-21d1t09.wav 12:10.43 128873180 --- -- ----- rw1984-07-21d1t10.wav 7:48.02 82559948 --- -- ----- rw1984-07-21d2t01.wav 12:03.14 127570172 --- -- ----- rw1984-07-21d2t02.wav 3:30.16 37081676 --- -- ----- rw1984-07-21d2t03.wav 12:00.59 127146812 --- -- ----- rw1984-07-21d2t04.wav 5:47.35 61293164 --- -- ----- rw1984-07-21d2t05.wav 5:09.54 54634652 --- -- ----- rw1984-07-21d2t06.wav 2:24.57 25535708 --- -- ----- rw1984-07-21d2t07.wav 6:57.56 73690556 --- -- ----- rw1984-07-21d2t08.wav 121:38.67 1287525576 B (totals for 18 files, 1.0000 overall compression ratio)