You searched for: Buffalo

Selected: Led Zeppelin - Untitled - 1973-07-15

Front Cover Art (No Image)
Front Artwork Unavailable
Rear Cover Art (No Image)
Rear Artwork Unavailable
Insert Cover Art (No Image)
Insert Artwork Unavailable

MD5 Record Set: Disc 1 -    Disc 2 -    Disc 3 -    Disc 4 -    Disc 5 -    Disc 6
  • Band / Artist
  • Concert Date
  • RoIO Title
  • Venue
  • Led Zeppelin
  • 1973-07-15
  • Untitled
  • Memorial Auditorium
  • Town / City
  • State / Prov.
  • Country
  • File Format
  • Buffalo
  • NY
  • USA
  • FLAC
  • Recorder Number
  • Sound Quality
  • Entered By
  • Date Entered
  • Soundboard
  • Good
  • davebowman
  • 4th of May 2010
  • Taper - Unknown
					
  • Led Zeppelin Buffalo, New York Memorial Auditorium 7-15-73 100 minutes Soundboard Quality: Ex+ Maxell Type II (3rd Gen)>X-Fi>Clean!>Wave Lab>Flac Speed Corrected and sbe's fixed. 1. Rock & Roll 2. Celebration Day 3. Black Dog 4. Over the Hills & Far Away 5. Misty Mountain Hop 6. Since I've Been Loving You 7. No Quarter 8. The Song Remains the Same 9. The Rain Song 10. Dazed & Confused 11. Stairway to Heaven In the summer of 1990 I uncovered four Zeppelin soundboards from '73 (Mobile, Ft. Worth, Buffalo, Chicago[I also uncovered some alternates for other tapes already floating around: III Rehearsals, IV Rehearsals and NY 7-27-73]). Buffalo is presented here. I've seen lots of bootlegs floating around claiming to be from the master tapes. It's simply untrue. I am the source for these tapes. The buck stops here. While their actual lineage was not passed on to me, I assume them to be 3rd gen. The person I recieved them from was not a Zep fan and had been sitting on them for many years. The only reason he decided to do something with them was because his tapes were quickly deteriorating (the tapes themselves were actually developing holes). So I count lineage as follows: Master>Unknown 1st Gen>2nd Gen(Source for my tapes)>3rd Gen(me). I'd rather err on the side of caution than grossly misrepresent my tapes lineage. I guarantee a comparison of these tapes against any other source for them. You will find these to be far superior. Rock & Roll, Sean. shntool report length expanded size cdr WAVE problems filename 5:10.32 54759308 --- -- ---xx 01 Rock & Roll.flac 3:34.43 37850780 --- -- ---xx 02 Celebration Day.flac 7:07.73 75494540 --- -- ---xx 03 Black Dog.flac 7:03.40 74711324 --- -- ---xx 04 Over the Hills & Far Away.flac 4:55.39 52129772 --- -- ---xx 05 Misty Mountain Hop.flac 9:32.05 100912604 --- -- ---xx 06 Since I've Been Loving You.flac 14:00.25 148234844 --- -- ---xx 07 No Quarter.flac 5:34.40 59011724 --- -- ---xx 08 The Song Remains the Same.flac 9:12.68 97532780 --- -- ---xx 09 The Rain Song.flac 33:28.56 354342956 --- -- ---xx 10 Dazed & Confused.flac 11:21.05 120140204 --- -- ---xx 11 Stairway to Heaven.flac 111:01.51 1175120836 B (totals for 11 files, 0.4971 overall compression ratio)