Front Cover Art (No Image)
Front Artwork Unavailable
Rear Cover Art (No Image)
Rear Artwork Unavailable
Insert Cover Art (No Image)
Insert Artwork Unavailable

MD5 Record Set:    Disc 1    -    Disc 2    -    Disc 3 -    Disc 4 -    Disc 5 -    Disc 6
  • Band / Artist
  • Concert Date
  • RoIO Title
  • Venue
  • Grateful Dead
  • 1972-03-05
  • gd72-03-05.sbd.miller.103282.flac16
  • Winterland Arean
  • Town / City
  • State / Prov.
  • Country
  • File Format
  • San Francisco
  • CA
  • FLAC
  • Recorder Number
  • Sound Quality
  • Entered By
  • Date Entered
  • Soundboard
  • Very Good
  • wharfratjoe
  • 18th of January 2013
					
  • Grateful Dead - March 5, 1972 Winterland - San Francisco, CA Recording Info: SBD -> Cassette Master -> Cassette -> Cassette -> Dat -> CD Transfer Info: CD -> Cool Edit Pro v2.0 -> Samplitude Professional v10.22 -> FLAC (2 Discs Audio / 1 Disc FLAC) All Transfers and Mastering By Charlie Miller charliemiller87@earthlink.net December 8, 2009 Patch Info: Unknown Mics -> ? -> Reel -> Dat (shnid=20704) supplies: Bertha (complete track) Black Throated Wind (complete track) Mr. Charlie (complete track) Sugaree (complete track) Greatest Story Ever Told (complete track) Next Time You See Me (complete track) China Cat Sunflower (0:00 - 0:47) I Know You Rider (0:13 - 0:41) Casey Jones (0:00 - 0:12) Goin' Down The Road Feeling Bad (6:38 - 6:53) One More Saturday Night (0:00 - 0:06) Notes: -- Note updated source info (but still can not confirm) -- That's Wavy Gravy at the beginning of China Cat Sunflower -- Mind Left Body Jam in Good Lovin' -- Thanks to Joe B. Jones for his help with the pitch correction Set One: d1t01 - Bertha d1t02 - Black Throated Wind d1t03 - Mr. Charlie d1t04 - Sugaree d1t05 - Greatest Story Ever Told d1t06 - Next Time You See Me d1t07 - Tennessee Jed d1t08 - Jack Straw d1t09 - China Cat Sunflower -> d1t10 - I Know You Rider d1t11 - Mexicali Blues d1t12 - You Win Again d1t13 - El Paso d1t14 - Casey Jones Set Two: d2t01 - Good Lovin' d2t02 - Not Fade Away -> d2t03 - Goin' Down The Road Feeling Bad -> d2t04 - Not Fade Away Encore: d2t05 - One More Saturday Night SHNTOOL OUTPUT: length expanded size cdr WAVE problems fmt ratio filename 6:02.14 63889772 B --- -- ----- wav 1.0000 gd72-03-05d1t01.wav 6:09.44 65195132 B --- -- ----- wav 1.0000 gd72-03-05d1t02.wav 4:06.51 43514396 B --- -- ----- wav 1.0000 gd72-03-05d1t03.wav 7:10.15 75887324 B --- -- ----- wav 1.0000 gd72-03-05d1t04.wav 3:53.06 41115356 B --- -- ----- wav 1.0000 gd72-03-05d1t05.wav 4:38.68 49199180 B --- -- ----- wav 1.0000 gd72-03-05d1t06.wav 6:46.14 71651372 B --- -- ----- wav 1.0000 gd72-03-05d1t07.wav 5:09.61 54651116 B --- -- ----- wav 1.0000 gd72-03-05d1t08.wav 6:33.27 69388748 B --- -- ----- wav 1.0000 gd72-03-05d1t09.wav 5:18.56 56226956 B --- -- ----- wav 1.0000 gd72-03-05d1t10.wav 4:29.65 47604524 B --- -- ----- wav 1.0000 gd72-03-05d1t11.wav 3:57.18 41849180 B --- -- ----- wav 1.0000 gd72-03-05d1t12.wav 4:35.72 48679388 B --- -- ----- wav 1.0000 gd72-03-05d1t13.wav 6:20.32 67107308 B --- -- ----- wav 1.0000 gd72-03-05d1t14.wav 16:54.09 178890812 B --- -- ----- wav 1.0000 gd72-03-05d2t01.wav 3:21.60 35597564 B --- -- ----- wav 1.0000 gd72-03-05d2t02.wav 7:11.52 76150748 B --- -- ----- wav 1.0000 gd72-03-05d2t03.wav 4:38.47 49149788 B --- -- ----- wav 1.0000 gd72-03-05d2t04.wav 4:44.74 50271692 B --- -- ----- wav 1.0000 gd72-03-05d2t05.wav 112:03.35 1186020356 B 1.0000 (19 files)