Front Cover Art (No Image)
Front Artwork Unavailable
Rear Cover Art (No Image)
Rear Artwork Unavailable
Insert Cover Art (No Image)
Insert Artwork Unavailable

MD5 Record Set:    Disc 1    -    Disc 2    -    Disc 3 -    Disc 4 -    Disc 5 -    Disc 6
  • Band / Artist
  • Concert Date
  • RoIO Title
  • Venue
  • Grateful Dead
  • 1972-03-21
  • gd72-03-21.sbd.miller.92395.sbeok.flac16
  • Academy of Music
  • Town / City
  • State / Prov.
  • Country
  • File Format
  • New York
  • NY
  • FLAC
  • Recorder Number
  • Sound Quality
  • Entered By
  • Date Entered
  • Soundboard
  • Very Good
  • wharfratjoe
  • 18th of January 2013
					
  • Grateful Dead - March 21, 1972 Academy of Music - New York, NY Recording Info: SBD -> Master Reel -> Apogee AD500 -> Dat/0 (48k) Transfer Info: Dat (Sony D8) -> Samplitude Professional v9.11 -> FLAC (3 Discs Audio / 2 Discs FLAC) All Transfers and Mastering By Charlie Miller charliemiller87@earthlink.net August 15, 2007 Notes: -- All disc changes are seamless -- Tuning tracks added for disc change purposes -- Mix problems in Bertha -- Cut during intro to Chinatown Shuffle -- Hundreds of flaws removed, but some may still remain -- There is a bad hum from a grounding issue that eventually gets fixed -- Thanks to Rob Eaton for lending me his Dats Set 1: d1t01 - Bertha d1t02 - Black Throated Wind d1t03 - Sugaree d1t04 - Chinatown Shuffle d1t05 - Greatest Story Ever Told d1t06 - Loser d1t07 - Mr. Charlie d1t08 - Looks Like Rain d1t09 - Tennessee Jed d1t10 - Playing In The Band d1t11 - You Win Again d1t12 - Cumberland Blues d2t01 - Tuning d2t02 - Next Time You See Me d2t03 - El Paso d2t04 - Good Lovin' -> d2t05 - Casey Jones Set 2: d2t06 - Tuning d2t07 - Truckin' -> d2t08 - Drums -> d2t09 - The Other One -> d2t10 - Wharf Rat d3t01 - Tuning d3t02 - Sugar Magnolia d3t03 - The Stranger (Two Souls In Communion) d3t04 - Ramble On Rose d3t05 - Me And My Uncle d3t06 - Big Railroad Blues d3t07 - Not Fade Away -> d3t08 - Goin' Down The Road Feeling Bad -> d3t09 - One More Saturday Night SHNTOOL OUTPUT: length expanded size cdr WAVE problems filename 8:47.71 93129836 --- -- ----- gd72-03-21d1t01.wav 7:16.30 76981004 --- -- ----- gd72-03-21d1t02.wav 6:57.03 73565900 --- -- ----- gd72-03-21d1t03.wav 3:17.08 34769660 --- -- ----- gd72-03-21d1t04.wav 5:12.70 55201484 --- -- ----- gd72-03-21d1t05.wav 5:59.49 63442892 --- -- ----- gd72-03-21d1t06.wav 6:03.08 64052060 --- -- ----- gd72-03-21d1t07.wav 7:47.06 82392956 --- -- ----- gd72-03-21d1t08.wav 9:17.44 98358332 --- -- ----- gd72-03-21d1t09.wav 9:37.61 101926316 --- -- ----- gd72-03-21d1t10.wav 4:30.33 47705660 --- -- ----- gd72-03-21d1t11.wav 4:57.09 52412012 --- -- ----- gd72-03-21d1t12.wav 1:16.32 13481708 --- -- ----- gd72-03-21d2t01.wav 4:23.24 46449692 --- -- ----- gd72-03-21d2t02.wav 7:07.07 75339308 --- -- ----- gd72-03-21d2t03.wav 14:43.26 155822396 --- -- ----- gd72-03-21d2t04.wav 6:27.59 68405612 --- -- ----- gd72-03-21d2t05.wav 1:14.07 13070108 --- -- ----- gd72-03-21d2t06.wav 10:46.19 113999132 --- -- ----- gd72-03-21d2t07.wav 3:04.52 32579948 --- -- ----- gd72-03-21d2t08.wav 17:44.32 187764908 --- -- ----- gd72-03-21d2t09.wav 10:40.21 112945436 --- -- ----- gd72-03-21d2t10.wav 4:18.21 45560636 --- -- ----- gd72-03-21d3t01.wav 9:23.15 99348524 --- -- ----- gd72-03-21d3t02.wav 7:15.24 76790492 --- -- ----- gd72-03-21d3t03.wav 6:44.52 71387948 --- -- ----- gd72-03-21d3t04.wav 5:11.54 54987452 --- -- ----- gd72-03-21d3t05.wav 5:01.53 53221100 --- -- ----- gd72-03-21d3t06.wav 3:57.05 41818604 --- -- ----- gd72-03-21d3t07.wav 5:47.39 61302572 --- -- ----- gd72-03-21d3t08.wav 5:18.49 56210492 --- -- ----- gd72-03-21d3t09.wav 210:10.08 2224424180 B (totals for 31 files)