You searched for: The Rolling Stones

Selected: The Rolling Stones - untitled (Freezer) - 1972-07-11

Front Cover Art (No Image)
Front Artwork Unavailable
Rear Cover Art (No Image)
Rear Artwork Unavailable
Insert Cover Art (No Image)
Insert Artwork Unavailable

MD5 Record Set: Disc 1 -    Disc 2 -    Disc 3 -    Disc 4 -    Disc 5 -    Disc 6
  • Band / Artist
  • Concert Date
  • RoIO Title
  • Venue
  • The Rolling Stones
  • 1972-07-11
  • untitled (Freezer)
  • Rubber Bowl
  • Town / City
  • State / Prov.
  • Country
  • File Format
  • Akron
  • OH
  • USA
  • FLAC
  • Recorder Number
  • Sound Quality
  • Entered By
  • Date Entered
  • Rec 1
  • Fair
  • Floridian
  • 20th June 2014
  • Taper - Unknown
					
  • BAND:ROLLING STONES VENUE: CITY:AKRON STATE: OH FORMAT:FLAC BOOTLEG TITLE: NONE Taper: Unknown Lineage: Master cassettes>1st Generation cassettes (1 maxell UD 90 and 1 maxell UD 60)>playback on JVC TD-W209 cassette deck >JVC XL-R5010 standalone > maxell audio cdr (0) > CDR (1)>EAC (secure mode, test and copy, read offset correct) >WAV >TLH >FLAC 8 Disc 1 (79.01) 01. Brown Sugar 02. Bitch 03. Rocks Off 04. Gimme Shelter 05. Happy 06. Tumbling Dice 07. Love In Vain 08. Sweet Virginia 09. You Can't Always Get What You Want 10. All Down The Line 11. Midnight Rambler 12. Bye Bye Johnny 13. Rip This Joint 14. Jumpin' Jack Flash 15. Street Fighting Man Disc 1 Fingerprints ___________________ ; flac fingerprint file generated by Trader's Little Helper ; generated on November 17, 2007, at 11:41 pm Track01.flac:e54717105ca139f59e89ecb088c085dc Track02.flac:d89d9078f91c2c71e5ad9a33504b9383 Track03.flac:a012ca5734b7f82adbdcff8ae7e9d4c2 Track04.flac:456fa91e241e1daea1e29a96f40365b2 Track05.flac:717d4b8fc6548dd0e884d48c0e6f6bd8 Track06.flac:8b651cc70b932053d92b6fa0d44bf918 Track07.flac:f81a11498d769dbe477d62794389d308 Track08.flac:4aa1b52dfa35d60470f0535da284e3ef Track09.flac:be046846214014142503563ee97b8dd7 Track10.flac:44a8227589c8efa27ae1fbabe7e366bb Track11.flac:91fa043100afbe2db42cfb0f851e79dd Track12.flac:364ec326c4e05c0615b8511e20c201a8 Track13.flac:b46a671dd59070e51d3509e21f6f71f1 Track14.flac:e04d6e7f8ef96be95b42a1f71fe7ee03 Track15.flac:e361f6ffb72bccb5be6c6a7979dcb666 DISC 1 SHNTOOL ______________ length expanded size cdr WAVE problems filename 3:55.12 41482268 --- -- ---xx Track01.flac 4:28.71 47442236 --- -- ---xx Track02.flac 3:59.46 42267836 --- -- ---xx Track03.flac 5:21.54 56751452 --- -- ---xx Track04.flac 3:18.71 35094236 --- -- ---xx Track05.flac 4:54.36 51946316 --- -- ---xx Track06.flac 6:35.22 69729788 --- -- ---xx Track07.flac 5:10.63 54832220 --- -- ---xx Track08.flac 8:24.68 89065580 --- -- ---xx Track09.flac 4:07.70 43735484 --- -- ---xx Track10.flac 12:04.03 127720700 --- -- ---xx Track11.flac 4:18.15 45546524 --- -- ---xx Track12.flac 2:30.26 26521196 --- -- ---xx Track13.flac 3:49.13 40426220 --- -- ---xx Track14.flac 6:01.59 63819212 --- -- ---xx Track15.flac 79:01.29 836381268 B (totals for 15 files, 0.6313 overall compression ratio) Many thanks to Freezer sharing this excellent show. **************************** NOT FOR SALE!!! TRADE ONLY!! MP3 ONLY FOR PERSONAL USE!!! **************************** Freezer Notes: Received in trade from original taper in early 70's/ mastered in 2002 to cdr, and sent to rollingstonesboots, a Yahoo trade group run by rmisra. Bootlegged with the life eq'ed out of it. Now available again unprocessed by some bootleg company, that also added much hiss to their commercial silver. Get it here and now -- UNPROCESSED -- before some fool decides to re-remaster it .