You searched for:

Selected: 311 - unknown - 2005-12-06

Front Cover Art (No Image)
Front Artwork Unavailable
Rear Cover Art (No Image)
Rear Artwork Unavailable
Insert Cover Art (No Image)
Insert Artwork Unavailable

MD5 Record Set: Disc 1 -    Disc 2 -    Disc 3 -    Disc 4 -    Disc 5 -    Disc 6
  • Band / Artist
  • Concert Date
  • RoIO Title
  • Venue
  • 311
  • 2005-12-06
  • unknown
  • Expo Center
  • Town / City
  • State / Prov.
  • Country
  • File Format
  • Madison
  • WI
  • FLAC
  • Recorder Number
  • Sound Quality
  • Entered By
  • Date Entered
  • unknown
  • Good
  • geek01
  • 29th June 2014
  • Taper - Unknown
					
  • 311 December 6, 2005 Expo Center- Madison WI intro Omaha Stylee Freak Out Do You Right 1,2,3 Speak Easy Hydro Can't Fade Me T & P Combo Love Song Applied Science Frolic Room Eons 8:16 AM You Wouldn't Believe Sever Down Don't Tread On Me Flowing Creatures (For A While) encore break Sweet Fuck The Bullshit Disc 1 Total: 43:51.64 01 intro 02:37.13 02 Omaha Stylee 04:31.00 03 Freak Out 04:13.02 04 Do You Right 05:05.68 05 1,2,3 03:05.64 06 Speak Easy 03:57.43 07 Hydro 04:13.72 08 Can't Fade Me 02:33.57 09 T & P Combo 03:15.35 10 Love Song 03:42.62 11*Applied Science 06:35.23 Disc 2 Total: 49:19.33 01 Frolic Room 03:18.68 02 Eons 04:25.04 03 8:16 AM 04:06.67 04 You Wouldn't Believe 05:16.15 05 Sever 04:12.67 06 Down 03:22.02 07 Don't Tread On Me 03:16.35 08 Flowing 05:47.03 09 Creatures (For A While) 02:35.60 10 encore break 04:15.52 11 Sweet 04:46.05 * - With extended drum solo shntool results length expanded size cdr WAVE problems filename 2:37.13 27725420 --- -- ---xx 311-2005-12-06-M1-d1t01.flac 4:31.00 47804444 --- -- ---xx 311-2005-12-06-M1-d1t02.flac 4:13.02 44633948 --- -- ---xx 311-2005-12-06-M1-d1t03.flac 5:05.68 53961980 --- -- ---xx 311-2005-12-06-M1-d1t04.flac 3:05.64 32784572 --- -- ---xx 311-2005-12-06-M1-d1t05.flac 3:57.43 41907980 --- -- ---xx 311-2005-12-06-M1-d1t06.flac 4:13.72 44798588 --- -- ---xx 311-2005-12-06-M1-d1t07.flac 2:33.57 27123308 --- -- ---xx 311-2005-12-06-M1-d1t08.flac 3:15.35 34480364 --- -- ---xx 311-2005-12-06-M1-d1t09.flac 3:42.62 39306668 --- -- ---xx 311-2005-12-06-M1-d1t10.flac 6:35.23 69732140 --- -- ---xx 311-2005-12-06-M1-d1t11.flac 3:56.30 41701004 --- -- ---xx 311-2005-12-06-M1-d2t01.flac 3:18.68 35087180 --- -- ---xx 311-2005-12-06-M1-d2t02.flac 4:25.04 46755452 --- -- ---xx 311-2005-12-06-M1-d2t03.flac 4:06.67 43552028 --- -- ---xx 311-2005-12-06-M1-d2t04.flac 5:16.15 55777724 --- -- ---xx 311-2005-12-06-M1-d2t05.flac 4:12.67 44610428 --- -- ---xx 311-2005-12-06-M1-d2t06.flac 3:22.02 35637548 --- -- ---xx 311-2005-12-06-M1-d2t07.flac 3:16.35 34656764 --- -- ---xx 311-2005-12-06-M1-d2t08.flac 5:47.03 61217900 --- -- ---xx 311-2005-12-06-M1-d2t09.flac 2:35.60 27483164 --- -- ---xx 311-2005-12-06-M1-d2t10.flac 4:15.52 45104348 --- -- ---xx 311-2005-12-06-M1-d2t11.flac 4:46.05 50461732 -b- -- ---xx 311-2005-12-06-M1-d2t12.flac 93:11.22 986304684 B (totals for 23 files, 0.5220 overall compression ratio) flac fingerprints 311-2005-12-06-M1-d1t01.flac:3ff520fbf5224fe50f857b16b6a0140a 311-2005-12-06-M1-d1t02.flac:dcf62f5429e5c5cd8230709dc6e04a97 311-2005-12-06-M1-d1t03.flac:37b1af1b25594ea27a67934a9d7a7314 311-2005-12-06-M1-d1t04.flac:ed5d8aa60b549c3d7c76442aa209e38c 311-2005-12-06-M1-d1t05.flac:497776a77f2158aa01219ac283ac944e 311-2005-12-06-M1-d1t06.flac:6c2c19a6f98410508f82f8a9cd729b3d 311-2005-12-06-M1-d1t07.flac:9420a9edfe9e8f717b6a7f38062f8ca8 311-2005-12-06-M1-d1t08.flac:ddc1a0c0f87a893e3a44a80729e18a6b 311-2005-12-06-M1-d1t09.flac:50e45b42b2b866c14c9026d26eb5ffc3 311-2005-12-06-M1-d1t10.flac:b92f75b8525f2355e08a31bd37fc2c5f 311-2005-12-06-M1-d1t11.flac:1bd0099ee0ac56ece568811e2e542632 311-2005-12-06-M1-d2t01.flac:effdfe17a8f5716028ed6057b3841752 311-2005-12-06-M1-d2t02.flac:2360c6bf99ec76c35d94af58698c8d55 311-2005-12-06-M1-d2t03.flac:18235530f3bb88641d779302ac87ce29 311-2005-12-06-M1-d2t04.flac:1d14fd8aa3994153d80f1eea989ff6d6 311-2005-12-06-M1-d2t05.flac:1be18a99eccc3639a535edbf127aded3 311-2005-12-06-M1-d2t06.flac:7a144a9d71a6b0a14db1ecfb72f7d7bb 311-2005-12-06-M1-d2t07.flac:a1415c8c2e2fb835f502b2ff1c47443b 311-2005-12-06-M1-d2t08.flac:d8445c6365df5979c3395743f1ba8879 311-2005-12-06-M1-d2t09.flac:fe8e14015723bc6e0902b0c5f29f0d61 311-2005-12-06-M1-d2t10.flac:6eb2cf44588ab88c71c799d02102dace 311-2005-12-06-M1-d2t11.flac:91d84e5604b802cb6730582a410a27e0 311-2005-12-06-M1-d2t12.flac:b03ede1f23fd91a0df6cec1654e3c1c6