You searched for: NH

Selected: Jason Bonham - untitled (1stgen) - 1989-12-28

Front Cover Art (No Image)
Front Artwork Unavailable
Rear Cover Art (No Image)
Rear Artwork Unavailable
Insert Cover Art (No Image)
Insert Artwork Unavailable

MD5 Record Set: Disc 1 -    Disc 2 -    Disc 3 -    Disc 4 -    Disc 5 -    Disc 6
  • Band / Artist
  • Concert Date
  • RoIO Title
  • Venue
  • Jason Bonham
  • 1989-12-28
  • untitled (1stgen)
  • Arco Arena
  • Town / City
  • State / Prov.
  • Country
  • File Format
  • Sacramento
  • CA
  • USA
  • FLAC
  • Recorder Number
  • Sound Quality
  • Entered By
  • Date Entered
  • Rec 1
  • Good
  • Floridian
  • 23rd July 2014
  • Taper - Unknown
					
  • Bonham 1989.12.28 Sacramento, California US Arco Arena Audience Recording Lineage: 1st Gen Tape > Audacity > Wave > Flac Level 8 > TLH > Tested and aligned on sector boundaries > FLAC Level 8 Disc 1 101 - Wait for You 102 - Guilty 103 - Bringing Me Down 104 - Cross Me and See 105 - Dreams 106 - Black Dog FLAC fingerprint and MD5 verification files are included. ------------------------------------------------------------------------------------------------------- First of all thanks to Sticks of Fire over at RO for getting this to me. I was given this show as well as two others, and I will be seeding those also after I get them ready to upload. This is a show from The Disregard of Timekeeping tour and Bonham opened for The Cult (I learned from listening to the show). This is the first time I have transferred a tape to digital so if there are errors I appologize. There is some funny comments from the crowd on this so listen close! ------------------------------------------------------------------------------------------------------- 101 - Wait for You.flac: audio data is cut on a sector boundary. 102 - Guilty.flac: audio data is cut on a sector boundary. 103 - Bringing Me Down.flac: audio data is cut on a sector boundary. 104 - Cross Me and See.flac: audio data is cut on a sector boundary. 105 - Dreams.flac: audio data is cut on a sector boundary. 106 - Black Dog.flac: audio data is cut on a sector boundary. There were no sector boundary errors. 101 - Wait for You.flac: tested ok (file is decodable without error). 102 - Guilty.flac: tested ok (file is decodable without error). 103 - Bringing Me Down.flac: tested ok (file is decodable without error). 104 - Cross Me and See.flac: tested ok (file is decodable without error). 105 - Dreams.flac: tested ok (file is decodable without error). 106 - Black Dog.flac: tested ok (file is decodable without error). No errors occured. length expanded size cdr WAVE problems fmt ratio filename 8:13.42 87064028 B --- -- ---xx flac 0.5237 101 - Wait for You.flac 6:13.00 65797244 B --- -- ---xx flac 0.5341 102 - Guilty.flac 5:35.25 59152844 B --- -- ---xx flac 0.5396 103 - Bringing Me Down.flac 7:01.73 74436140 B --- -- ---xx flac 0.5527 104 - Cross Me and See.flac 10:25.33 110327660 B --- -- ---xx flac 0.5496 105 - Dreams.flac 9:53.32 104680508 B --- -- ---xx flac 0.5556 106 - Black Dog.flac 47:22.55 501458424 B 0.5436 (6 files) No errors occured. 101 - Wait for You.flac:2cefba7ecfb37c6c877284f46c2c1f7f 102 - Guilty.flac:fe17097842810782862bdba93399f670 103 - Bringing Me Down.flac:8d36d40a8d5ce45d2a3fba42ad1849e1 104 - Cross Me and See.flac:be5c28af51c03bcc4e58d1adc019d7dd 105 - Dreams.flac:a175fa307c441656b0007918a0c7c22c 106 - Black Dog.flac:1e3296c13688db9ad3d0b8cd86fcb387 No errors occured.