Selected: Black Sabbath - Untitled - 1976-12-10

Front Cover Art (No Image)
Front Artwork Unavailable
Rear Cover Art (No Image)
Rear Artwork Unavailable
Insert Cover Art (No Image)
Insert Artwork Unavailable

MD5 Record Set:Disc 1 -    Disc 2 -    Disc 3 -    Disc 4 -    Disc 5 -    Disc 6
  • Band / Artist
  • Concert Date
  • RoIO Title
  • Venue
  • Black Sabbath
  • 1976-12-10
  • Untitled
  • Convention Center
  • Town / City
  • State / Prov.
  • Country
  • File Format
  • Niagara Falls
  • NY
  • USA
  • FLAC
  • Recorder Number
  • Sound Quality
  • Entered By
  • Date Entered
  • Rec 1
  • Very Good
  • Slick2007
  • 9th October 2014
  • Taper - Unknown
  • Black Sabbath 1976.12.10 Niagra Falls, New York US Convention Center Audience Recording - Taper Unknown Lineage: Unknown Gen Cass > CDR > EAC > FLAC Additional Lineage: FLAC > TLH > Tested for SBE's > FLAC Level 8 Tracks re-named by 3hrs, and new FFP/MD5 files created. Disc 1 101 - Supertzar Intro_Sympton of the Universe 102 - Snowblind 103 - All Moving Parts (Stand Still) 104 - War Pigs 105 - Gypsy 106 - Black Sabbath 107 - Meglomania Disc 2 201 - Dirty Women 202 - Drum Solo 203 - Guitar Solo 204 - Rock and Roll Doctor 205 - Guitar Solo Continued_Jam 206 - Iron Man 207 - Children of the Grave 208 - Supernaught Intro_Paranoid FLAC fingerprint and MD5 verification files are included. -------------------------------------------------------------------------------------------------------- Notes: This is a very enjoyable listen. Ozzy and the band are in great form. The story behind this show is it was discovered along with Niagara FAlls September 8, 1978 at a record convention in the 1990's and was presented to www.sabbathlive.com in 2005. This is it's first presentation online and has only been in limited circulation previously. It would be nice to see the 1978 Niagara show come to light in the same fashion. The audience is also very "lively" in this document inclusive of the phrase "Sit down you pig fuckers!". Generation is unknown based on the recording's origin. -------------------------------------------------------------------------------------------------------- 101 - Supertzar Intro_Sympton of the Universe.flac: audio data is cut on a sector boundary. 102 - Snowblind.flac: audio data is cut on a sector boundary. 103 - All Moving Parts (Stand Still).flac: audio data is cut on a sector boundary. 104 - War Pigs.flac: audio data is cut on a sector boundary. 105 - Gypsy.flac: audio data is cut on a sector boundary. 106 - Black Sabbath.flac: audio data is cut on a sector boundary. 107 - Meglomania.flac: audio data is cut on a sector boundary. 201 - Dirty Women.flac: audio data is cut on a sector boundary. 202 - Drum Solo.flac: audio data is cut on a sector boundary. 203 - Guitar Solo.flac: audio data is cut on a sector boundary. 204 - Rock and Roll Doctor.flac: audio data is cut on a sector boundary. 205 - Guitar Solo Continued_Jam.flac: audio data is cut on a sector boundary. 206 - Iron Man.flac: audio data is cut on a sector boundary. 207 - Children of the Grave.flac: audio data is cut on a sector boundary. 208 - Supernaught Intro_Paranoid.flac: audio data is cut on a sector boundary. There were no sector boundary errors. 101 - Supertzar Intro_Sympton of the Universe.flac: tested ok (file is decodable without error). 102 - Snowblind.flac: tested ok (file is decodable without error). 103 - All Moving Parts (Stand Still).flac: tested ok (file is decodable without error). 104 - War Pigs.flac: tested ok (file is decodable without error). 105 - Gypsy.flac: tested ok (file is decodable without error). 106 - Black Sabbath.flac: tested ok (file is decodable without error). 107 - Meglomania.flac: tested ok (file is decodable without error). 201 - Dirty Women.flac: tested ok (file is decodable without error). 202 - Drum Solo.flac: tested ok (file is decodable without error). 203 - Guitar Solo.flac: tested ok (file is decodable without error). 204 - Rock and Roll Doctor.flac: tested ok (file is decodable without error). 205 - Guitar Solo Continued_Jam.flac: tested ok (file is decodable without error). 206 - Iron Man.flac: tested ok (file is decodable without error). 207 - Children of the Grave.flac: tested ok (file is decodable without error). 208 - Supernaught Intro_Paranoid.flac: tested ok (file is decodable without error). No errors occured. length expanded size cdr WAVE problems fmt ratio filename 5:12.67 55194428 B --- -- ---xx flac 0.5552 101 - Supertzar Intro_Sympton of the Universe.flac 6:41.29 70804652 B --- -- ---xx flac 0.5930 102 - Snowblind.flac 6:21.07 67224908 B --- -- ---xx flac 0.6081 103 - All Moving Parts (Stand Still).flac 8:12.15 86824124 B --- -- ---xx flac 0.6047 104 - War Pigs.flac 5:34.25 58976444 B --- -- ---xx flac 0.5925 105 - Gypsy.flac 8:08.52 86205548 B --- -- ---xx flac 0.5691 106 - Black Sabbath.flac 10:21.68 109704380 B --- -- ---xx flac 0.6087 107 - Meglomania.flac 8:11.49 86727692 B --- -- ---xx flac 0.6028 201 - Dirty Women.flac 2:19.49 24634892 B --- -- ---xx flac 0.6150 202 - Drum Solo.flac 6:45.01 71444396 B --- -- ---xx flac 0.5991 203 - Guitar Solo.flac 3:22.66 35788076 B --- -- ---xx flac 0.6324 204 - Rock and Roll Doctor.flac 3:35.28 37991900 B --- -- ---xx flac 0.5923 205 - Guitar Solo Continued_Jam.flac 7:44.00 81849644 B --- -- ---xx flac 0.6227 206 - Iron Man.flac 4:54.61 52005116 B --- -- ---xx flac 0.6044 207 - Children of the Grave.flac 3:41.37 39071468 B --- -- ---xx flac 0.5962 208 - Supernaught Intro_Paranoid.flac 91:07.29 964447668 B 0.5992 (15 files) No errors occured. MD5 2791e16b4f4b032d347158169d7ad50c *101 - Supertzar Intro_Sympton of the Universe.flac fb81902d6b7bcf7e00213398f5a9a2f6 *102 - Snowblind.flac c3b43115378ad4723708f305983e1683 *103 - All Moving Parts (Stand Still).flac 7c179628f60119302f116c98123cfea3 *104 - War Pigs.flac 476e742f7b3913ebd7c516ab1b3c8cdd *105 - Gypsy.flac 348d698b84a135875bdaeb6d02c61388 *106 - Black Sabbath.flac 99e2bae0af5ce12a5cc4bdfb8f1c60b7 *107 - Meglomania.flac 88af9d2146bbce33ea6aae91fb00b9ba *201 - Dirty Women.flac 2354af7dd7ce10927fb77f3c02a312f9 *202 - Drum Solo.flac 307154e991cfa6e90c61f89112dd0c18 *203 - Guitar Solo.flac b20fb78736576304ecc3e0af64b8b807 *204 - Rock and Roll Doctor.flac 0db8718669c5376e7ad88e307f7a5050 *205 - Guitar Solo Continued_Jam.flac 03983289aff0670f4710f82b5368fd0d *206 - Iron Man.flac 50a476f3327060ecb035f211ab2753b5 *207 - Children of the Grave.flac 779138407ca6e4cac751a1465d42e604 *208 - Supernaught Intro_Paranoid.flac No errors occured. FFP 101 - Supertzar Intro_Sympton of the Universe.flac:cae2342ffb253d781471a075f2c69ce0 102 - Snowblind.flac:3cf77e65ed51a5e01f1d7877d50e8af0 103 - All Moving Parts (Stand Still).flac:8631b8b12637b14125b402f2c55b31de 104 - War Pigs.flac:4b366a72d4851ecf5b118b650f322126 105 - Gypsy.flac:a03b37273d082c2ca9182675c4571187 106 - Black Sabbath.flac:295233ff7ef223b33471ade043715c06 107 - Meglomania.flac:253ec2cafe818f6d780bf62534d0e7d2 201 - Dirty Women.flac:dbb22265a4538295bbb0666a56ed2b6a 202 - Drum Solo.flac:6f5935461a285fb8bb46c565e4553d25 203 - Guitar Solo.flac:2a9987511b2626d59204f0f73d81fc41 204 - Rock and Roll Doctor.flac:33250e6c862e88aabdea4d8004551dff 205 - Guitar Solo Continued_Jam.flac:fe3315c721d2b1d9978af9626eb05d1d 206 - Iron Man.flac:b1add77afa6a3d33c7da6432e5e04963 207 - Children of the Grave.flac:c55c774b7afdfe062f6a1a90e3e779d7 208 - Supernaught Intro_Paranoid.flac:52b497e7830c7b90876045e769ff0a64 No errors occured.