You searched for: England

Selected: AC/DC - Live 76 - 1976-07-08

Front Cover Art (No Image)
Front Artwork Unavailable
Rear Cover Art (No Image)
Rear Artwork Unavailable
Insert Cover Art (No Image)
Insert Artwork Unavailable

MD5 Record Set: Disc 1 -    Disc 2 -    Disc 3 -    Disc 4 -    Disc 5 -    Disc 6
  • Band / Artist
  • Concert Date
  • RoIO Title
  • Venue
  • AC/DC
  • 1976-07-08
  • Live 76
  • Paris Theater
  • Town / City
  • State / Prov.
  • Country
  • File Format
  • London
  • N/A
  • England
  • FLAC
  • Recorder Number
  • Sound Quality
  • Entered By
  • Date Entered
  • Rec 1
  • Very Good
  • biggjjuan
  • 4th of September 2008
  • Taper - Unknown
					
  • AC/DC July, 08 1976 BBC 1976 Paris Theater: London UK SBD LP->COOLEDIT->CLICK REMOVAL-HARD LIMITED-> SLIGHT EQ ->WAV->FLAC Trader's Little Helper (fix sbe's) > FLAC Recorded sometime during the first 2 weeks in July 1976 for Mike Mansfield Super Pop Show at the Paris Theater and later broadcast in September of the same year. Clean transfer from pirate BBC transcription disc and LIVE 76 LP for final track (thus alternate inferior source sound). Complete set more commonly known, erroneously, as "Marquee '76" Intro Live Wire Long Way To The Top Soul Strippper High Voltage Baby Please Dont Go (alternate source - LIVE 76 LP) DO NOT USE LOSSY COMPRESSION WHEN DISTRIBUTING THIS LOVELY BIT DO NOT NOT DO WHAT OUGHT HAVE BEEN DONE YESTERDAY length expanded size cdr WAVE problems filename 0:51.04 9005852 --- -- ---xx 01 - acdc - intro.flac 5:58.47 63261788 --- -- ---xx 02 - acdc - live wire.flac 6:10.68 65427980 --- -- ---xx 03 - acdc - it's a long way to the top.flac 8:06.69 85892732 --- -- ---xx 04 - acdc - soul stripper.flac 5:52.66 62248076 --- -- ---xx 05 - acdc - high voltage.flac 5:19.38 56361020 --- -- ---xx 06 - acdc - baby please don't go (alternate source).flac 32:19.67 342197448 B (totals for 6 files, 0.6528 overall compression ratio) MD5 8e88ba5ad3f218f098dc155bfc91ac19 *01 - acdc - intro.flac 4ac188470f94ac458da6508d85580e25 *02 - acdc - live wire.flac 435dccf68aa30ca7f7677fc3b2ab07e6 *03 - acdc - it's a long way to the top.flac 6513e72379a9c0b0504b30b48651b250 *04 - acdc - soul stripper.flac 8ea63c9bdf4e1138d744651c081d204d *05 - acdc - high voltage.flac b0c0e2b5aa023a196674f3b07fd78618 *06 - acdc - baby please don't go (alternate source).flac Original FLAC MD5 55cbed2e772aa02b6608b2bde0bfeca7 *acdc July 1976 London UK Marquee BBC Mike Mansfield Super Pop - (01).flac c240957ce144147ac41947518642946a *acdc July 1976 London UK Marquee BBC Mike Mansfield Super Pop - (02).flac 0afb2ac58e3e66675fdc6090164aa26e *acdc July 1976 London UK Marquee BBC Mike Mansfield Super Pop - (03).flac 070e506b3b414884c35ee4456310ab8c *acdc July 1976 London UK Marquee BBC Mike Mansfield Super Pop - (04).flac bde71c8597d8d4d983d8a4b9f8be9bcd *acdc July 1976 London UK Marquee BBC Mike Mansfield Super Pop - (05).flac 76e62476586dc3a0fb3dad65e802eb03 *acdc July 1976 London UK Marquee BBC Mike Mansfield Super Pop - (06).flac