Front Cover Art (No Image)
Front Artwork Unavailable
Rear Cover Art (No Image)
Rear Artwork Unavailable
Insert Cover Art (No Image)
Insert Artwork Unavailable

MD5 Record Set:    Disc 1    -    Disc 2 -    Disc 3 -    Disc 4 -    Disc 5 -    Disc 6
  • Band / Artist
  • Concert Date
  • RoIO Title
  • Venue
  • Heart
  • 2016-07-21
  • Untitled (jbarrowsrn)
  • First Niagra Pavilion
  • Town / City
  • State / Prov.
  • Country
  • File Format
  • Burgettstown
  • PA
  • USA
  • FLAC
  • Recorder Number
  • Sound Quality
  • Entered By
  • Date Entered
  • Rec 1
  • Fair
  • Floridian
  • 8th August 2016
					
  • Heart First Niagara Pavilion, Burgettstown, PA, 2016-07-21 Panasonic DMC-ZS8>PC>You IN HD > Any Audio Convertor > FLAC MASTER COPY Jbarrowsrn Wild Child Magic Man What About Love Bebe Le Strange These Dreams Two Straight On (with 'Get Up Offa That Thing' (James Brown) intro) Kick It Out Beautiful Broken Alone Crazy on You Barracuda Encore: Immigrant Song Stairway to Heaven I was fortunate enough to get 8th row seats for this show in Pittsburgh. I saw them the week before in Detroit and had good seats but decided not to tape there or here but with a perfect view and no security I decided to tape. I fee this is 1 of the best I have ever done and think I might pay the huge prices and it close for the now on because I am old and it is just different up front! Anyway, video is great like I said. I did miss the first 5 seconds of Stairway because we were thinking Misty Mountain Hop and were parked so far away. But, after the first note we decided to stay because it was our first stairway! Last 10 seconds cut as well as we did get stuck for 15 in lot but have been stuck hours before and can't do that again. Enjoy the show as I will be cutting my taping down in the years to come and enjoy more! The following are video specs for 1 song but are the same for all the songs! General Format : MPEG-4 Format profile : QuickTime Codec ID : qt 2007.09.04 (qt /pana) File size : 575 MiB Duration : 4mn 29s Overall bit rate mode : Variable Overall bit rate : 17.9 Mbps Writing library : pana IsTruncated : Yes Video ID : 1 Format : JPEG Codec ID : jpeg Bit rate mode : Variable Bit rate : 17.7 Mbps Width : 1 280 pixels Height : 720 pixels Display aspect ratio : 16:9 Frame rate mode : Constant Frame rate : 30.000 fps Color space : YUV Chroma subsampling : 4:2:0 Bit depth : 8 bits Compression mode : Lossy Bits/(Pixel*Frame) : 0.639 Stream size : 566 MiB (99%) Audio ID : 2 Format : PCM Format settings, Endianness : Big Format settings, Sign : Signed Codec ID : twos Bit rate mode : Constant Bit rate : 256 Kbps Channel(s) : 1 channel Sampling rate : 16.0 KHz Bit depth : 16 bits Stream size : 8.21 MiB (1%)