Front Cover Art
Click to expand Front Artwork
Rear Cover Art
Click to expand Rear Artwork
Insert Cover Art (No Image)
Insert Artwork Unavailable

MD5 Record Set:    Disc 1    -    Disc 2 -    Disc 3 -    Disc 4 -    Disc 5 -    Disc 6
  • Band / Artist
  • Concert Date
  • RoIO Title
  • Venue
  • Dire Straits
  • 1979-04-01
  • Untitled
  • The Boarding House
  • Town / City
  • State / Prov.
  • Country
  • File Format
  • San Francisco
  • CA
  • USA
  • SHN
  • Recorder Number
  • Sound Quality
  • Entered By
  • Date Entered
  • Rec 1
  • Good
  • davebowman
  • 2019-11-01 13:00:12
					
  • Dire Straits April 1, 1979 The Boarding House, San Francisco CA SBD 1 - (tuning) 2 - Down to the Waterline 3 - Six Blade Knife 4 - In the Gallery 5 - What's a Matter Baby 6 - Water of Love 7 - Sultans of Swing > (encore break?) 8 - Wild West End 9 - Eastbound Train Note - The DAT didn't have a setlist, so I didn't risk exposing my ignorance by trying to come up with all the track titles. If you know them, please send them to me! Here's the CDRWin cue sheet from the master: FILE F:\Straights_040179.WAV WAVE TRACK 01 AUDIO FLAGS DCP INDEX 01 00:00:00 rem - TRACK 02 AUDIO FLAGS DCP INDEX 01 02:26:04 rem - TRACK 03 AUDIO FLAGS DCP INDEX 01 05:19:18 rem - TRACK 04 AUDIO FLAGS DCP INDEX 01 10:26:19 rem - TRACK 05 AUDIO FLAGS DCP INDEX 01 16:09:21 rem - TRACK 06 AUDIO FLAGS DCP INDEX 01 19:05:18 rem - TRACK 07 AUDIO FLAGS DCP INDEX 01 25:10:00 rem - Sultans TRACK 08 AUDIO FLAGS DCP INDEX 01 33:41:19 rem - TRACK 09 AUDIO FLAGS DCP INDEX 01 39:25:29 rem -