Front Cover Art (No Image)
Front Artwork Unavailable
Rear Cover Art (No Image)
Rear Artwork Unavailable
Insert Cover Art (No Image)
Insert Artwork Unavailable

MD5 Record Set:    Disc 1    -    Disc 2 -    Disc 3 -    Disc 4 -    Disc 5 -    Disc 6
  • Band / Artist
  • Concert Date
  • RoIO Title
  • Venue
  • Fleetwood Mac
  • 2009-03-11
  • Untitled
  • TD Banknorth Garden
  • Town / City
  • State / Prov.
  • Country
  • File Format
  • Boston
  • MA
  • USA
  • DVD
  • Recorder Number
  • Sound Quality
  • Entered By
  • Date Entered
  • Audience Cam
  • Good
  • davebowman
  • 2020-03-23 05:39:45
					
  • Fleetwood Mac Date: 11 March 2009 Venue: TD Banknorth Garden City/State: Boston, MA Country: USA Bootleg Title: no title Tour: Unleashed Tour 2009 Type: Audience Audio Quality: A- Picture Quality: A- Media: 2DVD-R Format: MPEG-2 Bitrate: 9800 Kbps Aspect ratio: 4/3, 720 x 480 Standard: NTSC Lineage:(AUD camera shot) > DVD-R > DVD Encrypter > TLH > You! Menu: no Chapters: random Setlist: 1.01 Monday Morning 1.02 The Chain 1.03 Dreams 1.04 I Know I'm Not Wrong 1.05 Gypsy 1.06 Go Insane 1.07 Rhiannon 1.08 Second Hand News 1.09 Tusk 1.10 Sara 1.11 Big Love 2.01 Landslide 2.02 Never Going Back Again 2.03 Storms 2.04 Say You Love Me 2.05 Gold Dust Woman 2.06 Oh Well 2.07 I'm So Afraid 2.08 Stand Back 2.09 Go Your Own Way Sorry Recording is missing World Turning, Don't Stop, and SS Lineup: Lindsey Buckingham: guitar, vocals Stevie Nicks: vocals Mick Fleetwood: drums John McVie: bass Brett Tuggle: piano Neale Heywood: guitar Sharon Celani: background vocals Jana Andeson: background vocals Lori Nicks: background vocals Notes: Uploaded by desrtangl on ThrownDown.net 2009-4-19 CHECKSUMS: 52ba2bc914b28f272dbcd59e89e2f211 */DVD1/VIDEO_TS/VIDEO_TS.BUP 52ba2bc914b28f272dbcd59e89e2f211 */DVD1/VIDEO_TS/VIDEO_TS.IFO 3d355504788b104f929749a9199576d6 */DVD1/VIDEO_TS/VIDEO_TS.VOB 34a762d41dcad29af3585dc77b421aac */DVD1/VIDEO_TS/VTS_01_0.BUP 34a762d41dcad29af3585dc77b421aac */DVD1/VIDEO_TS/VTS_01_0.IFO a38b7e8bb41c5c5447c79d702c4c0172 */DVD1/VIDEO_TS/VTS_01_1.VOB 914c1b6f0bea728e90dfe25ead95c7e0 */DVD1/VIDEO_TS/VTS_01_2.VOB 9e2848c6a0b24051c3d223d59297261c */DVD1/VIDEO_TS/VTS_01_3.VOB f73d35f0f8f8ff6621b70a96cc281076 */DVD1/VIDEO_TS/VTS_01_4.VOB a29a2dbaf5dd744af956fafdc364f763 */DVD2/VIDEO_TS/VIDEO_TS.BUP a29a2dbaf5dd744af956fafdc364f763 */DVD2/VIDEO_TS/VIDEO_TS.IFO 134bab9144ccd770c12e07834b4989c5 */DVD2/VIDEO_TS/VIDEO_TS.VOB 770a646cfb9a86bc0100e7199ca45f9d */DVD2/VIDEO_TS/VTS_01_0.BUP 770a646cfb9a86bc0100e7199ca45f9d */DVD2/VIDEO_TS/VTS_01_0.IFO edce5b21a5b4ed1556bf2e2265f2dbdc */DVD2/VIDEO_TS/VTS_01_1.VOB 9cae55202d7bdefe73e9f5f824eae818 */DVD2/VIDEO_TS/VTS_01_2.VOB 2a9c9fe167897741b4f75b3074375597 */DVD2/VIDEO_TS/VTS_01_3.VOB fb7477095d1c2a659d5c9155ab6cb3df */DVD2/VIDEO_TS/VTS_01_4.VOB SPECS: General Complete name : DVD2/VIDEO_TS/VTS_01_3.VOB Format : MPEG-PS File size : 1 024 MiB Duration : 15 s 163 ms Overall bit rate mode : Constant Overall bit rate : 567 Mb/s Video ID : 224 (0xE0) Format : MPEG Video Format version : Version 2 Format profile : Main@Main Format settings : BVOP Format settings, BVOP : Yes Format settings, Matrix : Default Format settings, GOP : M=3, N=15 Format settings, picture structure : Frame Duration : 15 s 163 ms Bit rate mode : Constant Bit rate : 555 Mb/s Maximum bit rate : 9 800 kb/s Width : 720 pixels Height : 480 pixels Display aspect ratio : 4:3 Frame rate : 29.970 (30000/1001) FPS Standard : NTSC Color space : YUV Chroma subsampling : 4:2:0 Bit depth : 8 bits Scan type : Interlaced Scan order : Top Field First Compression mode : Lossy Bits/(Pixel*Frame) : 53.581 Time code of first frame : 00:29:42:00 Time code source : Group of pictures header GOP, Open/Closed : Open Stream size : 1 002 MiB (98%) Color primaries : BT.601 NTSC Transfer characteristics : BT.601 Matrix coefficients : BT.601 Audio ID : 189 (0xBD)-128 (0x80) Format : AC-3 Format/Info : Audio Coding 3 Commercial name : Dolby Digital Muxing mode : DVD-Video Duration : 15 s 163 ms Bit rate mode : Constant Bit rate : 256 kb/s Channel(s) : 2 channels Channel layout : L R Sampling rate : 48.0 kHz Frame rate : 31.250 FPS (1536 SPF) Compression mode : Lossy Delay relative to video : 16 s 239 ms Stream size : 474 KiB (0%) Service kind : Complete Main Menu