Front Cover Art (No Image)
Front Artwork Unavailable
Rear Cover Art (No Image)
Rear Artwork Unavailable
Insert Cover Art (No Image)
Insert Artwork Unavailable

MD5 Record Set:    Disc 1    -    Disc 2 -    Disc 3 -    Disc 4 -    Disc 5 -    Disc 6
  • Band / Artist
  • Concert Date
  • RoIO Title
  • Venue
  • Legion of Mary
  • 1975-05-21
  • MOTB Release: 0043 24/96
  • Keystone
  • Town / City
  • State / Prov.
  • Country
  • File Format
  • Berkeley
  • CA
  • USA
  • FLAC
  • Recorder Number
  • Sound Quality
  • Entered By
  • Date Entered
  • Rec 1
  • Good
  • davebowman
  • 2020-05-06 13:23:38
					
  • MOTB Release: 0043 24bit/96Khz Release Date: 09/08/2007 Band: Legion Of Mary Date: 05/21/1975 - Wednesday Venue: Keystone Location: Berkeley, CA Source: Audience FOB Recording Media: Maxell UD90 Lineage: Sony ECM-270 and ECM-250 Blended [Positioned Onstage] > Sony TC-152 > MAC Transfer: MAC > Nak Dragon > LynxTWO Model B > WaveLab 5.0 > HD 24/96 WAV Taper: Bob Menke and Louis Falanga Transfer: Bob Menke Mastering: Jamie Waddell Set 1: s1t01 - That's The Touch I Like s1t02 - Tuning/"Please turn Merl's mic on..." s1t03 - I Feel Like Dynamite s1t04 - Tuning s1t05 - Last Train From Poor Valley s1t06 - Finders Keepers s1t07 - Tough Mama s1t08 - That's What Love Will Make You Do Set 2: s2t01 - I'll Take A Melody s2t02 - You Can Leave Your Hat On s2t03 - Mississippi Moon s2t04 - Harder They Come s2t05 - Creepin' s2t06 - How Sweet It Is (To Be Loved By You) Legion Of Mary: * Jerry Garcia - guitar, vocals * Merl Saunders - keyboards, vocals * John Kahn - bass * Martin Fierro - saxophone, flute * Ron Tutt - drums Notes: -- The version of Creepin' played here - originally released 07/22/1974 by Stevie Wonder on the album "Fulfillingness' First Finale" - is an instrumental rendition. Special Note: -- These are recordings done by Bob Menke and Louis Falanga at the Berkeley Keystone, made in May and June of 1975, that MOTB will be turning out, the subsequent Grateful Dead and related recordings are dedicated to Bob Menke's mom, Connie, who is suffering from pancreatic cancer. As you listen to what are certainly the most unique - if possibly not some of the best - audience recordings of Jerry Garcia in his prime, please send out healing vibes and prayers to Connie any way you see fit. We are all pulling for her, so please keep her in your hearts and prayers. The MOTB Team FLAC FINGERPRINTS: lom1975-05-21.motb.0043.s1t01.flac:793ffc55430d40592fbac2e44862263f lom1975-05-21.motb.0043.s1t02.flac:0f585bb28b5dd9077f85f8be97a4cb58 lom1975-05-21.motb.0043.s1t03.flac:668b3dff11826feceea7adf4b89ac1cc lom1975-05-21.motb.0043.s1t04.flac:2c02edbd69028bbfa1b1e3e8e67e167e lom1975-05-21.motb.0043.s1t05.flac:a02a4cfa5b0ba18e3d7a91a0aa4e9d26 lom1975-05-21.motb.0043.s1t06.flac:e861dc7b78f499c4cbf7d6989ead0698 lom1975-05-21.motb.0043.s1t07.flac:7ab717a2781ef6e8aeddbe2282985c4d lom1975-05-21.motb.0043.s1t08.flac:5d09163f7bcc53936ea470f72442e7f1 lom1975-05-21.motb.0043.s2t01.flac:209b11563a4e329e3c96133990935b37 lom1975-05-21.motb.0043.s2t02.flac:92fe3ae12ee5c464f1e614d3175727c5 lom1975-05-21.motb.0043.s2t03.flac:cdfc9e0bf1ff39fe0b0d869a30d3bb81 lom1975-05-21.motb.0043.s2t04.flac:750c20b85b1dcec1e0b111edbd266544 lom1975-05-21.motb.0043.s2t05.flac:b23360936ed3f5f8ce2455daab5ba473 lom1975-05-21.motb.0043.s2t06.flac:6c11d7ca95e811be5cd6a115d7ce1051 MD5 CHECKSUMS: 91390c2c401848336ed488685a04fe2d *lom1975-05-21.motb.0043.s1t01.flac 44f7a15c96d98971e816c833c4d654fa *lom1975-05-21.motb.0043.s1t02.flac b69552590f2589b9a2a0546ec5749495 *lom1975-05-21.motb.0043.s1t03.flac b0f388641b361a49dcf035f0c066c6a9 *lom1975-05-21.motb.0043.s1t04.flac 9027bdc3718de5eaa3b09b9419a72f92 *lom1975-05-21.motb.0043.s1t05.flac 0f445239351036e4298551f2bb5a7c6e *lom1975-05-21.motb.0043.s1t06.flac bb37f7a46befcdb3d0562972ec22bcb8 *lom1975-05-21.motb.0043.s1t07.flac 290116dab0c2f25fa996ad69b75d5e12 *lom1975-05-21.motb.0043.s1t08.flac 45b425582bf00f6fe238f4cc18496fa9 *lom1975-05-21.motb.0043.s2t01.flac 65a0a77eaf0921c45982a8deebfe76d4 *lom1975-05-21.motb.0043.s2t02.flac 7870a4a057889c0473059f95bf3859b9 *lom1975-05-21.motb.0043.s2t03.flac 22c96ab8255bbf15f62c93cdc1f668b1 *lom1975-05-21.motb.0043.s2t04.flac fe99b28ea0d8feb55e61172a5ab4b733 *lom1975-05-21.motb.0043.s2t05.flac b7d50bf07bf9818aff2fa9b753c03066 *lom1975-05-21.motb.0043.s2t06.flac SHNTOOL OUTPUT: length expanded size cdr WAVE problems filename 10:21.960 358248866 cxx -- ---xx lom1975-05-21.motb.0043.s1t01.flac 1:34.166 54239516 cxx -- ---xx lom1975-05-21.motb.0043.s1t02.flac 12:43.230 439620596 cxx -- ---xx lom1975-05-21.motb.0043.s1t03.flac 0:52.063 29988044 cxx -- ---xx lom1975-05-21.motb.0043.s1t04.flac 11:09.181 385448156 cxx -- ---xx lom1975-05-21.motb.0043.s1t05.flac 12:47.989 442361852 cxx -- ---xx lom1975-05-21.motb.0043.s1t06.flac 9:06.362 314704700 cxx -- ---xx lom1975-05-21.motb.0043.s1t07.flac 12:35.574 435210596 cxx -- ---xx lom1975-05-21.motb.0043.s1t08.flac 9:51.829 340893572 cxx -- ---xx lom1975-05-21.motb.0043.s2t01.flac 16:40.850 576489356 cxx -- ---xx lom1975-05-21.motb.0043.s2t02.flac 9:38.139 333007964 cxx -- ---xx lom1975-05-21.motb.0043.s2t03.flac 21:56.955 758565908 cxx -- ---xx lom1975-05-21.motb.0043.s2t04.flac 13:48.731 477349028 cxx -- ---xx lom1975-05-21.motb.0043.s2t05.flac 8:40.447 299777732 cxx -- ---xx lom1975-05-21.motb.0043.s2t06.flac 151:47.474 5245905886 B (totals for 14 files, 0.7484 overall compression ratio)