Front Cover Art (No Image)
Front Artwork Unavailable
Rear Cover Art (No Image)
Rear Artwork Unavailable
Insert Cover Art (No Image)
Insert Artwork Unavailable

MD5 Record Set:    Disc 1    -    Disc 2 -    Disc 3 -    Disc 4 -    Disc 5 -    Disc 6
  • Band / Artist
  • Concert Date
  • RoIO Title
  • Venue
  • Legion of Mary
  • 1975-05-22
  • MOTB Release: 0044 24/96
  • Keystone
  • Town / City
  • State / Prov.
  • Country
  • File Format
  • Berkeley
  • CA
  • USA
  • FLAC
  • Recorder Number
  • Sound Quality
  • Entered By
  • Date Entered
  • Rec 1
  • Good
  • davebowman
  • 2020-05-06 13:27:24
					
  • MOTB Release: 0044 24bit/96Khz Release Date: 09/09/2007 Band: Legion Of Mary Date: 05/22/1975 - Thursday Venue: Keystone Location: Berkeley, CA Source: Audience FOB Recording Media: Maxell UD90 Lineage: Sony ECM-270 and ECM-250 [Positioned Onstage] > Sony TC-152 > MAC Transfer: MAC > Nak Dragon > LynxTWO Model B > WaveLab 5.0 > HD 24/96 WAV Taper: Bob Menke and Louis Falanga Transfer: Bob Menke Mastering: Jamie Waddell Set 1: s1t01 - Tore Up Over You s1t02 - Little Sunflower s1t03 - Tuning/Crowd s1t04 - I Feel Like Dynamite s1t05 - Every Word You Say s1t06 - Mystery Train Set 2: s2t01 - He Ain't Give You None s2t02 - Boogie On Reggae Woman s2t03 - When I Die s2t04 - Going, Going, Gone s2t05 - (I'm A) Road Runner Legion Of Mary: * Jerry Garcia - guitar, vocals * Merl Saunders - keyboards, vocals * John Kahn - bass * Martin Fierro - saxophone, flute * Ron Tutt - drums Notes: -- "When I Die" is an instrumental rendition of the song, originally performed by the band Motherlode. It is the title track from an album that Motherlode released in 1969 on the Kama Sutra label. Written by band members William "Smitty" Smith and Steve Kennedy, it was a hit single and spent some time in the Top 20. -- Based on currently available information it appears this is one of two times LOM performed "When I Die" at a show. Special Note: -- These are recordings done by Bob Menke and Louis Falanga at the Berkeley Keystone, made in May and June of 1975, that MOTB will be turning out, the subsequent Grateful Dead and related recordings are dedicated to Bob Menke's mom, Connie, who is suffering from pancreatic cancer. As you listen to what are certainly the most unique - if possibly not some of the best - audience recordings of Jerry Garcia in his prime, please send out healing vibes and prayers to Connie any way you see fit. We are all pulling for her, so please keep her in your hearts and prayers. The MOTB Team FLAC FINGERPRINTS: lom1975-05-22.motb.0044.s1t01.flac:1479f1430e2fe5bcf89d2c742d6db187 lom1975-05-22.motb.0044.s1t02.flac:2fae5d90280c11355fca1b74ac9e90ce lom1975-05-22.motb.0044.s1t03.flac:0ae1869778b673bbdb0d831b97d06c41 lom1975-05-22.motb.0044.s1t04.flac:b38023d7a4e4583423791144056c4bbb lom1975-05-22.motb.0044.s1t05.flac:89e4e780307a0ec3fa5770b3dd3deed1 lom1975-05-22.motb.0044.s1t06.flac:7d02c1f7554ef72a7382e8c99891e7f9 lom1975-05-22.motb.0044.s2t01.flac:37b39edd1f2774412aa3fe24e76d45d1 lom1975-05-22.motb.0044.s2t02.flac:fd3ccfba1c76a5b90b2756eca9cd9116 lom1975-05-22.motb.0044.s2t03.flac:cbe03ceb17cb429e6d45d3170f2064e6 lom1975-05-22.motb.0044.s2t04.flac:53a013f8a4a5b4fce7d3cafed2fdf2e8 lom1975-05-22.motb.0044.s2t05.flac:97d69d5f1555055191f78ed2de0e0e31 MD5 CHECKSUMS: 5cb1127b26a26b2b717157ddde5c4fad *lom1975-05-22.motb.0044.s1t01.flac 0a0e519a07d504eea7d81776d8aa6e27 *lom1975-05-22.motb.0044.s1t02.flac b51c9a7ec6bdf6716def35656356d6b8 *lom1975-05-22.motb.0044.s1t03.flac a16ab53d58ecd289548d70a798f40a06 *lom1975-05-22.motb.0044.s1t04.flac d7a50bf6a299449313584ac4345b810a *lom1975-05-22.motb.0044.s1t05.flac 732ad2ee8e2bef3b2b8f7adead53c643 *lom1975-05-22.motb.0044.s1t06.flac cf4265776ec4ad5aea1bc33c72e06ead *lom1975-05-22.motb.0044.s2t01.flac 4b0c09e4e9b445c3c06af0fb125bf5a6 *lom1975-05-22.motb.0044.s2t02.flac 3ad400f6b4a6466d62f73985150dc955 *lom1975-05-22.motb.0044.s2t03.flac 86ffec5e764c90ea8a052f4ca8e63468 *lom1975-05-22.motb.0044.s2t04.flac 0cac073fc2420479869e681c53f83b01 *lom1975-05-22.motb.0044.s2t05.flac SHNTOOL OUTPUT: length expanded size cdr WAVE problems filename 12:14.743 423211868 cxx -- ---xx lom1975-05-22.motb.0044.s1t01.flac 16:41.964 577131452 cxx -- ---xx lom1975-05-22.motb.0044.s1t02.flac 1:09.206 39862916 cxx -- ---xx lom1975-05-22.motb.0044.s1t03.flac 12:32.671 433538324 cxx -- ---xx lom1975-05-22.motb.0044.s1t04.flac 11:53.783 411139052 cxx -- ---xx lom1975-05-22.motb.0044.s1t05.flac 15:00.387 518623100 cxx -- ---xx lom1975-05-22.motb.0044.s1t06.flac 13:06.389 452959964 cxx -- ---xx lom1975-05-22.motb.0044.s2t01.flac 15:03.297 520298900 cxx -- ---xx lom1975-05-22.motb.0044.s2t02.flac 12:03.516 416745044 cxx -- ---xx lom1975-05-22.motb.0044.s2t03.flac 20:19.371 702357812 cxx -- ---xx lom1975-05-22.motb.0044.s2t04.flac 12:22.687 427787684 cxx -- ---xx lom1975-05-22.motb.0044.s2t05.flac 142:28.013 4923656116 B (totals for 11 files, 0.7160 overall compression ratio)