Front Cover Art (No Image)
Front Artwork Unavailable
Rear Cover Art (No Image)
Rear Artwork Unavailable
Insert Cover Art (No Image)
Insert Artwork Unavailable

MD5 Record Set:    Disc 1    -    Disc 2 -    Disc 3 -    Disc 4 -    Disc 5 -    Disc 6
  • Band / Artist
  • Concert Date
  • RoIO Title
  • Venue
  • Legion of Mary
  • 1975-06-21
  • MOTB Release: 0047 24/96
  • Keystone
  • Town / City
  • State / Prov.
  • Country
  • File Format
  • Berkeley
  • CA
  • USA
  • FLAC
  • Recorder Number
  • Sound Quality
  • Entered By
  • Date Entered
  • Rec 1
  • Good
  • davebowman
  • 2020-05-06 13:39:24
					
  • MOTB Release: 0047 24/96 Release Date: 09/12/2007 Band: Legion Of Mary Date: 06/21/1975 - Saturday Venue: Keystone Location: Berkeley, CA Source: Audience FOB Recording Media: Maxell UD90 Lineage: Sony ECM-270 and ECM-250 [Positioned Onstage] > Sony TC-152 > MAC Transfer: MAC > Nak Dragon > LynxTWO-B > WaveLab 5.0 > HD 24/96 WAV Taper: Bob Menke and Louis Falanga Transfer: Bob Menke Mastering: Jamie Waddell Set 1: s1t01 - Let It Rock s1t02 - I Feel Like Dynamite s1t03 - Every Word You Say s1t04 - Tuning s1t05 - Little Sunflower s1t06 - Tore Up Over You s1t07 - Tough Mama Set 2: s2t01 - I'll Take A Melody s2t02 - You Can Leave Your Hat On s2t03 - Mississippi Moon s2t04 - Harder They Come s2t05 - Mystery Train Legion Of Mary: * Jerry Garcia - guitar, vocals * Merl Saunders - keyboards, vocals * John Kahn - bass * Martin Fierro - saxophone, flute * Ron Tutt - drums Mastering Notes: -- Edited and Mastered on the GEMS Edit Station. Notes: -- d1t01, d1t02, d1t03 - Distant sounding vocals at generally low levels; improving slightly at the end of "Every Word You Say". -- d1t06, d1t07 - Audio quality and sound level of vocals improves from the very start of "Tore Up Over You" and into "Tough Mama". -- Vocals achieve sonic and spatial nirvana through the remainder of Set 2. FLAC FINGERPRINTS: lom1975-06-21.motb.0047.s1t01.flac:703405c41635d597555f3bd30f2d9a4c lom1975-06-21.motb.0047.s1t02.flac:f1ad2b87b8de28f5b9d0cbf839ed713e lom1975-06-21.motb.0047.s1t03.flac:e3c52cbc54ed202617ada8de3889cfac lom1975-06-21.motb.0047.s1t04.flac:075c114b3661dec1d51eeaad6af77cf9 lom1975-06-21.motb.0047.s1t05.flac:e884265ba46acaf48f7dfa4e5dcac5f6 lom1975-06-21.motb.0047.s1t06.flac:d3642c87b86b813f13fae6c07ab6a2a1 lom1975-06-21.motb.0047.s1t07.flac:c582831a7139a200f94ee336856c70b1 lom1975-06-21.motb.0047.s2t01.flac:7479d29798171c065a68f9f2b635e5a9 lom1975-06-21.motb.0047.s2t02.flac:d9364d175eb794666d4a64ee51896b76 lom1975-06-21.motb.0047.s2t03.flac:4303a3aad795bce0ab23421a5dd8d1ea lom1975-06-21.motb.0047.s2t04.flac:54db17f23587cb99114c611f6918ceb3 lom1975-06-21.motb.0047.s2t05.flac:9bb8910f93763e8742b24d6d2481ac98 MD5 CHECKSUMS: d1301c4ef577b333107b0d60261c5136 *lom1975-06-21.motb.0047.s1t01.flac ee13d78549c74910368ae497be6f1622 *lom1975-06-21.motb.0047.s1t02.flac f7af95efa1a06cb86967aed70fda764c *lom1975-06-21.motb.0047.s1t03.flac 8d31511ebd9776d4a833ef19c475d682 *lom1975-06-21.motb.0047.s1t04.flac 4288c644a3d8142faa1ed89a04ea6204 *lom1975-06-21.motb.0047.s1t05.flac f5f6a4b5c034bc91bc86046d52062f9a *lom1975-06-21.motb.0047.s1t06.flac f0c293df0f54e4c60de92676f2626137 *lom1975-06-21.motb.0047.s1t07.flac c7c6dbf3791bf2d4df6844f35358f1fe *lom1975-06-21.motb.0047.s2t01.flac eb6e393cfd878f608a0302474b73688f *lom1975-06-21.motb.0047.s2t02.flac c31a8d8c7e3c142ef6a1bec715d1fe00 *lom1975-06-21.motb.0047.s2t03.flac b16c9229c015165db661b072b59f14f8 *lom1975-06-21.motb.0047.s2t04.flac f309571c34caec0fcb4d5d3a664ddaa1 *lom1975-06-21.motb.0047.s2t05.flac SHNTOOL OUTPUT: length expanded size cdr WAVE problems filename 11:32.137 398671100 cxx -- ---xx lom1975-06-21.motb.0047.s1t01.flac 13:24.611 463455764 cxx -- ---xx lom1975-06-21.motb.0047.s1t02.flac 8:39.804 299407292 cxx -- ---xx lom1975-06-21.motb.0047.s1t03.flac 1:21.285 46820132 cxx -- ---xx lom1975-06-21.motb.0047.s1t04.flac 18:45.628 648361772 cxx -- ---xx lom1975-06-21.motb.0047.s1t05.flac 8:52.269 306586772 cxx -- ---xx lom1975-06-21.motb.0047.s1t06.flac 8:41.005 300098780 cxx -- ---xx lom1975-06-21.motb.0047.s1t07.flac 10:34.495 365469092 cxx -- ---xx lom1975-06-21.motb.0047.s2t01.flac 15:30.516 535977332 cxx -- ---xx lom1975-06-21.motb.0047.s2t02.flac 9:04.298 313515764 cxx -- ---xx lom1975-06-21.motb.0047.s2t03.flac 19:11.255 663122924 cxx -- ---xx lom1975-06-21.motb.0047.s2t04.flac 12:29.284 431587340 cxx -- ---xx lom1975-06-21.motb.0047.s2t05.flac 138:06.586 4773074064 B (totals for 12 files, 0.7215 overall compression ratio)