Front Cover Art (No Image)
Front Artwork Unavailable
Rear Cover Art (No Image)
Rear Artwork Unavailable
Insert Cover Art (No Image)
Insert Artwork Unavailable

MD5 Record Set:    Disc 1    -    Disc 2 -    Disc 3 -    Disc 4 -    Disc 5 -    Disc 6
  • Band / Artist
  • Concert Date
  • RoIO Title
  • Venue
  • Legion of Mary
  • 1975-05-21
  • Soundboard > Master Reel - 138651
  • Keystone
  • Town / City
  • State / Prov.
  • Country
  • File Format
  • Berkeley
  • CA
  • USA
  • FLAC
  • Recorder Number
  • Sound Quality
  • Entered By
  • Date Entered
  • Soundboard
  • Good
  • davebowman
  • 2020-05-13 15:32:46
					
  • Legion Of Mary Keystone, Berkeley, CA 05/21/1975 Source: Soundboard > Master Reel > DAT (48k) Provided by Rich Gastwirt Transfer: Dat > Sony PCM-R500 > Sound Devices 744T > wav 16/48 Transfered by Charlie Miller Lineage: wav > iZotope RX6 Advanced > iZotope Ozone 5 Advanced > CD Wave > TLH > Flac 16 Set I 01 The Touch I Like 02 I Feel Like Dynamite 03 Last Train From Poor Valley 04 Finders Keepers 05 Tough Mama 06 That's What Love Will Make You Do Set II 01 tuning 02 I'll Take A Melody 03 tuning 04 You Can Leave Your Hat On [MISSING]Mississippi Moon [MISSING]Harder They Come [MISSING]Creepin' [MISSING]How Sweet It Is (To Be Loved By You) Jerry Garcia - guitar, vocals John Kahn - bass Merl Saunders - keyboards, vocals Martin Fierro - saxophone Ron Tutt - drums Notes; The first 53 seconds of "I Feel Like Dynamite" is mixed differently to the rest of the song. Thanks to Rich and Charlie edited and mastered SIRMick June 2017 shntool output: length expanded size cdr WAVE problems fmt ratio filename 12:38.000 145536044 B cxx -- ---xx flac 0.5269 lom1975-05-21s1t01.flac 14:11.067 163404844 B cxx -- ---xx flac 0.5295 lom1975-05-21s1t02.flac 11:10.587 128752684 B cxx -- ---xx flac 0.4634 lom1975-05-21s1t03.flac 13:00.453 149847084 B cxx -- ---xx flac 0.5154 lom1975-05-21s1t04.flac 9:43.427 112017964 B cxx -- ---xx flac 0.5107 lom1975-05-21s1t05.flac 11:36.560 133739564 B cxx -- ---xx flac 0.5532 lom1975-05-21s1t06.flac 0:28.147 5404204 B cxx -- ---xx flac 0.3631 lom1975-05-21s2t01.flac 9:06.520 104931884 B cxx -- ---xx flac 0.4964 lom1975-05-21s2t02.flac 2:08.520 24675884 B cxx -- ---xx flac 0.3535 lom1975-05-21s2t03.flac 15:42.600 180979244 B cxx -- ---xx flac 0.5232 lom1975-05-21s2t04.flac 99:45.880 1149289400 B 0.5123 (10 files) flac fingerprints: lom1975-05-21s1t01.flac:44a2eaf56726c6428607398ab31146cd lom1975-05-21s1t02.flac:a534ccbd4c35d7e080705bf12ea5561a lom1975-05-21s1t03.flac:9665dbb034f16d78365fc0c32b4df932 lom1975-05-21s1t04.flac:7d7f1233a4295bfbf3683d891a650bf3 lom1975-05-21s1t05.flac:58da2eff1e8d04130edf950bd1f3baae lom1975-05-21s1t06.flac:03be60841d4c16e2f22717c8423f3d9e lom1975-05-21s2t01.flac:4ffe9e976f92e47a965e551ef02fafbf lom1975-05-21s2t02.flac:991192266e7d8bca2682491deabff5f6 lom1975-05-21s2t03.flac:cbfa2578ac2dbeb5d977e58747c62b0c lom1975-05-21s2t04.flac:1072dc5947d94e3ef2f3944e13a6075d