Front Cover Art (No Image)
Front Artwork Unavailable
Rear Cover Art (No Image)
Rear Artwork Unavailable
Insert Cover Art (No Image)
Insert Artwork Unavailable

MD5 Record Set:    Disc 1    -    Disc 2 -    Disc 3 -    Disc 4 -    Disc 5 -    Disc 6
  • Band / Artist
  • Concert Date
  • RoIO Title
  • Venue
  • Legion of Mary
  • 1975-04-18
  • set2partial.138626
  • Arie Crown Theater
  • Town / City
  • State / Prov.
  • Country
  • File Format
  • Chicago
  • IL
  • USA
  • FLAC
  • Recorder Number
  • Sound Quality
  • Entered By
  • Date Entered
  • Soundboard
  • Fair
  • davebowman
  • 2020-05-13 15:36:56
					
  • Legion Of Mary Arie Crown Theater Chicago, IL 04/18/1975 Source: Soundboard > Master Reel > DAT (48k) Provided by Rich Gastwirt Transfer: Dat > Sony PCM-R500 > Sound Devices 744T > wav 16/48 Transfered by Charlie Miller Lineage: wav > iZotope RX6 Advanced > iZotope Ozone 5 Advanced > CD Wave > TLH > Flac 16 Set II (partial) 01 Tore Up Over You 02 You Can Leave Your Hat On 03 Mississippi Moon 04 I'll Take A Melody Jerry Garcia - guitar, vocals John Kahn - bass Merl Saunders - keyboards, vocals Martin Fierro - saxophone, flute Ron Tutt - drums Thanks to Rich and Charlie edited and mastered SIRMick June 2017 shntool output: length expanded size cdr WAVE problems fmt ratio filename 13:36.933 156851244 B cxx -- ---xx flac 0.5504 lom1975-04-18s2t01.flac 13:43.853 158179884 B cxx -- ---xx flac 0.4973 lom1975-04-18s2t02.flac 9:47.640 112826924 B cxx -- ---xx flac 0.4267 lom1975-04-18s2t03.flac 10:30.533 121062444 B cxx -- ---xx flac 0.4972 lom1975-04-18s2t04.flac 47:38.960 548920496 B 0.4979 (4 files) flac fingerprints: lom1975-04-18s2t01.flac:b3a50ecb2ebe1abaf68ab126695c59d3 lom1975-04-18s2t02.flac:cd2e611ed92efad8060815d4af292aea lom1975-04-18s2t03.flac:38b4ff61fc12425ec3d7790bd0519356 lom1975-04-18s2t04.flac:f74c7b2ea3c56ff0029630bf7676b889