Front Cover Art (No Image)
Front Artwork Unavailable
Rear Cover Art (No Image)
Rear Artwork Unavailable
Insert Cover Art (No Image)
Insert Artwork Unavailable

MD5 Record Set:    Disc 1    -    Disc 2 -    Disc 3 -    Disc 4 -    Disc 5 -    Disc 6
  • Band / Artist
  • Concert Date
  • RoIO Title
  • Venue
  • Talking Heads
  • 1982-07-03
  • (Hans Devente, tape #46)
  • Torhout Festival
  • Town / City
  • State / Prov.
  • Country
  • File Format
  • Torhout
  • N/A
  • Belgium
  • FLAC
  • Recorder Number
  • Sound Quality
  • Entered By
  • Date Entered
  • Rec 1
  • Good
  • davebowman
  • 2020-07-02 10:00:31
					
  • TALKING HEADS Torhout Festival Torhout Belgium July 03 1982 01 Psycho Killer 02 Cities 03 Big Blue Plymouth 04 band intros 05 Once in a Lifetime 06 Mind 07 My Big Hands 08 Big Business 09 I Zimbra 10 Swamp 11 Slink 12 Houses in Motion 13 tuning 14 What a Day That Was 15 Life During Wartime 16 Encore: Take Me To the River Audience master tape from the collection of Hans Devente, tape #46. Transfer by Hans: Cassette > Nakamichi Dragon > Audacity > WAV > FLAC. Edits: FLAC > TLH > Wavelab > CD-Wave > TLH > FLAC 1644 tagged. Hans' notes about the recording: "They played before Jackson Browne... I was sitting next to the soundman. I used a Sony TC-D5 with two small lapel mics, by Sony, the ones used for professional voice recording in interviews, like the Sony ECM-77B, but an older generation of course." This is the TH 1982 tour setlist a little bit shortened for a festival performance (Love > Building and Crosseyed & Painless were not played). Psycho Killer fades in during intro, not much missing. Abrupt ending to Swamp, a small bit of audience noise was patched-in at end of the song. THANKS to Hans for making this nice recording available...Enjoy! b9fc5ac077a50927d83a8db34e175bfd *th1982-07-03t01.flac db92bfdfbf5892456973c02f64b8a381 *th1982-07-03t02.flac ecd69f84a677957d1d8a884b9c60c5f7 *th1982-07-03t03.flac da784203eddf033ea6efefbbb1a221f1 *th1982-07-03t04.flac 4b9491328965cfc339e082de33b0d360 *th1982-07-03t05.flac 75b475f15e7f8b5de7690f8d353d8c6e *th1982-07-03t06.flac a1234276662e5607dace1244d03b5ef9 *th1982-07-03t07.flac c5d3d6baf8219cf1e2bf11d751f2f0e2 *th1982-07-03t08.flac 3e3d86950893d014ae107a191d7fee4a *th1982-07-03t09.flac 043f795078990fab93cfbf8be90fd9ec *th1982-07-03t10.flac 9e8a12232747a97893cf9ca612575a8e *th1982-07-03t11.flac bc1b38c12318b6c225f16cbbf97a061c *th1982-07-03t12.flac 87242fd4f3a3ac37176e72609729fcfc *th1982-07-03t13.flac f1d3220d10e11bb495705fbf3dcf415c *th1982-07-03t14.flac 86b7f596d7028190e7d7eb9bb7e250ac *th1982-07-03t15.flac 0415439a61772b30817990ef40e35794 *th1982-07-03t16.flac th1982-07-03t01.flac:86b10ee4bfa18747ef867920fb643985 th1982-07-03t02.flac:2aa06558e2a311ce42269fb4417acacf th1982-07-03t03.flac:b59d60edc98daa0af6cc514c94fb51ec th1982-07-03t04.flac:73d923ee3b5ab5c94806e27cc350b3d3 th1982-07-03t05.flac:0174d58c63b6949874f67b891d9ec1f7 th1982-07-03t06.flac:c984f6d0e9c43b4e20b8c7d3013dab78 th1982-07-03t07.flac:2a51648f4c084ce95c5c81c68239e322 th1982-07-03t08.flac:3d2626004441c1caa8b71e525874cd8d th1982-07-03t09.flac:9b7be1f27a4b67496989a0c9470f7db5 th1982-07-03t10.flac:602b9e99eb73b237973c1a2bb217acac th1982-07-03t11.flac:1835fc7b9a590a31539781e03faedb6b th1982-07-03t12.flac:dbe8714d030d7c18200ce7b3ff34b59d th1982-07-03t13.flac:431227217a82e6dd61a43ac32115379e th1982-07-03t14.flac:e038c2c391027cdd418be90130311cc8 th1982-07-03t15.flac:811af5c9737ca98e33eb7a162d07a283 th1982-07-03t16.flac:d5ed408463f5560c134e8abd8e8d729f length expanded size cdr WAVE problems fmt ratio filename 5:16.14 55775372 B --- -- ---xx flac 0.6156 th1982-07-03t01.flac 5:04.48 53738540 B --- -- ---xx flac 0.6125 th1982-07-03t02.flac 4:54.73 52033340 B --- -- ---xx flac 0.6304 th1982-07-03t03.flac 0:31.12 5496668 B --- -- ---xx flac 0.5453 th1982-07-03t04.flac 5:25.50 57447644 B --- -- ---xx flac 0.6193 th1982-07-03t05.flac 4:39.47 49326188 B --- -- ---xx flac 0.6175 th1982-07-03t06.flac 5:50.25 61798844 B --- -- ---xx flac 0.6064 th1982-07-03t07.flac 4:55.49 52153292 B --- -- ---xx flac 0.6331 th1982-07-03t08.flac 3:47.31 40115756 B --- -- ---xx flac 0.6448 th1982-07-03t09.flac 5:14.61 55533116 B --- -- ---xx flac 0.5916 th1982-07-03t10.flac 5:19.55 56401004 B --- -- ---xx flac 0.6077 th1982-07-03t11.flac 7:17.06 77100956 B --- -- ---xx flac 0.6073 th1982-07-03t12.flac 0:59.26 10468796 B --- -- ---xx flac 0.4925 th1982-07-03t13.flac 6:08.37 65002268 B --- -- ---xx flac 0.6235 th1982-07-03t14.flac 5:16.44 55845932 B --- -- ---xx flac 0.6486 th1982-07-03t15.flac 6:31.73 69144140 B --- -- ---xx flac 0.6402 th1982-07-03t16.flac 77:13.51 817381856 B 0.6185 (16 files) No errors occured.