Front Cover Art (No Image)
Front Artwork Unavailable
Rear Cover Art (No Image)
Rear Artwork Unavailable
Insert Cover Art (No Image)
Insert Artwork Unavailable

MD5 Record Set:    Disc 1    -    Disc 2 -    Disc 3 -    Disc 4 -    Disc 5 -    Disc 6
  • Band / Artist
  • Concert Date
  • RoIO Title
  • Venue
  • Jefferson Starship
  • 1992-07-04
  • Untitled
  • Bayfront Park
  • Town / City
  • State / Prov.
  • Country
  • File Format
  • Miami
  • FL
  • USA
  • FLAC
  • Recorder Number
  • Sound Quality
  • Entered By
  • Date Entered
  • Rec 1
  • Very Good
  • Guzatti
  • 2022-11-05 13:26:32
					
  • Jefferson Starship Bayfront Park, Miami, FL 1992-07-04 Blows Against the Empire Tour Source: Audience Cassette (low gen) - from the collection of Jim Vita Transfer: Cassette > Nakamichi DR3 > Sound Devices 744T > 24/48 wav - transfer by Jon Pasternak Lineage: wav 24/48 > Adobe Audition 3 > iZotope RX 10 Advanced > wav 16/44.1 > CD Wave > Flac 16 01 tuning 02 We Can Be Together 03 Ride The Tiger 04 Crown Of Creation 05 Wooden Ships 06 Law Man 07 I'm On//Fire 08 John's Other 09 No More Country Girls 10 Somewhere Over The Rainbow 11 Girl With The Hungry Eyes 12 Have You Seen The Saucers 13 Dark Ages 14 Poem - For The Good Of All 15 America The Beautiful 16 America 17 Poem - Get Ready 18 Volunteers (with false start) 19 This Land Is Your Land > 20 The Other Side//Of This Life Darby Gould - vocals Paul Kantner - rhythm guitar, vocals Slick Aguilar - lead guitar, backing vocals Jack Casady - bass Tim Gorman - keyboards, backing vocals Prairie Prince - drums, percussion Papa John Creach - violin, backing vocals Thanks to Jim Vita for providing this source Thanks to Jon Pasternak for the transfer Thanks to Charlie Miller for co-ordinating edited and mastered SIRMick October 2022 shntool output: length expanded size cdr WAVE problems fmt ratio filename 2:01.27 21407948 B --- -- ---xx flac 0.5790 js1992-07-04t01.flac 4:44.16 50135276 B --- -- ---xx flac 0.6458 js1992-07-04t02.flac 6:07.02 64743548 B --- -- ---xx flac 0.6545 js1992-07-04t03.flac 2:52.65 30493724 B --- -- ---xx flac 0.6285 js1992-07-04t04.flac 7:16.54 77037452 B --- -- ---xx flac 0.6268 js1992-07-04t05.flac 5:20.07 56464508 B --- -- ---xx flac 0.6428 js1992-07-04t06.flac 4:24.38 46659020 B --- -- ---xx flac 0.6401 js1992-07-04t07.flac 3:48.40 40313324 B --- -- ---xx flac 0.6343 js1992-07-04t08.flac 7:28.39 79118972 B --- -- ---xx flac 0.6289 js1992-07-04t09.flac 5:25.42 57428828 B --- -- ---xx flac 0.5649 js1992-07-04t10.flac 4:17.26 45395996 B --- -- ---xx flac 0.6460 js1992-07-04t11.flac 4:05.62 43363868 B --- -- ---xx flac 0.6388 js1992-07-04t12.flac 4:54.07 51878108 B --- -- ---xx flac 0.6641 js1992-07-04t13.flac 5:12.74 55210892 B --- -- ---xx flac 0.5862 js1992-07-04t14.flac 1:32.46 16337036 B --- -- ---xx flac 0.5720 js1992-07-04t15.flac 6:52.28 72742700 B --- -- ---xx flac 0.6366 js1992-07-04t16.flac 1:04.39 11381372 B --- -- ---xx flac 0.5962 js1992-07-04t17.flac 4:46.10 50473964 B --- -- ---xx flac 0.6403 js1992-07-04t18.flac 2:41.20 28447484 B --- -- ---xx flac 0.5870 js1992-07-04t19.flac 5:54.23 62499740 B --- -- ---xx flac 0.6601 js1992-07-04t20.flac 90:50.65 961533760 B 0.6293 (20 files) flac fingerprints: js1992-07-04t01.flac:87f7969086dce3702e3554c21f1a66f2 js1992-07-04t02.flac:0cca2458c701a8589280b465854ac230 js1992-07-04t03.flac:74c7ca723ceab0d331df7e4d09554427 js1992-07-04t04.flac:e0098543124e5ae9dde98e2b35397fbb js1992-07-04t05.flac:9be8a9726e2171fec747e42e236f6228 js1992-07-04t06.flac:1dc15aff042c6d6cb2779f60cdd3fa30 js1992-07-04t07.flac:339bf82b4e3515a1ffcc4a60177271e1 js1992-07-04t08.flac:a46c27767cdebe3009ad829b0b4f40e1 js1992-07-04t09.flac:8bd6c2d1a123d70cd609c45bdd184889 js1992-07-04t10.flac:fb4902a00dfb14d65bb3aeb74f55adb8 js1992-07-04t11.flac:b7aaf0b095de757307611e6a4a2bbee0 js1992-07-04t12.flac:ca8ae545cc2f78f44e5d3f6d1a6cc800 js1992-07-04t13.flac:a8561310d787d6717c5674e8a0184f87 js1992-07-04t14.flac:55254bc82c79e83043154c17092b0a88 js1992-07-04t15.flac:de874d8a4073991f1ca8f35e408a6ad4 js1992-07-04t16.flac:8143612f3c52d4cf11357ff50961488a js1992-07-04t17.flac:e92d287f457530a02127fdfd5a61b8c7 js1992-07-04t18.flac:524f4d08730797ab8b21fa8ad56e087b js1992-07-04t19.flac:4c2cb25612e4d6fca861fe844bd3f5d6 js1992-07-04t20.flac:32a12890a8855a18cc4c81804b23573b